<?xml version="1.0" standalone="no"?>
<!DOCTYPE svg PUBLIC "-//W3C//DTD SVG 1.1//EN" "http://www.w3.org/Graphics/SVG/1.1/DTD/svg11.dtd" >
<svg xmlns="http://www.w3.org/2000/svg">
<metadata>Generated by IcoMoon</metadata>
<defs>
<font id="icomoon" horiz-adv-x="1024">
<font-face units-per-em="1024" ascent="960" descent="-64" />
<missing-glyph horiz-adv-x="1024" />
<glyph unicode="&#x20;" horiz-adv-x="512" d="" />
<glyph unicode="&#xe900;" glyph-name="k_plus-fill" d="M720.046 362.667h42.667v67.2h66.992v35.2h-66.992v68.267h-42.667v-68.267h-67.2v-35.2h67.2v-67.2zM467.362 320h53.333v96l89.6-96h70.4l-119.467 128 119.467 128h-70.4l-89.6-96v96h-53.333v-256zM318.029 320h53.333v256h-120.533v-53.333h67.2v-202.667zM194.295 57.623q-29.439 0-51.056 21.616-21.616 21.617-21.616 51.056v635.409q0 29.543 21.616 51.235 21.617 21.693 51.056 21.693h635.409q29.543 0 51.235-21.693t21.693-51.235v-635.409q0-29.439-21.693-51.056-21.692-21.616-51.235-21.616h-635.409z" />
<glyph unicode="&#xe901;" glyph-name="k_plus" d="M720.046 362.667h42.667v67.2h66.992v35.2h-66.992v68.267h-42.667v-68.267h-67.2v-35.2h67.2v-67.2zM467.362 320h53.333v96l89.546-96h70.199l-119.212 128 119.212 128h-70.199l-89.546-96v96h-53.333v-256zM318.029 320h53.333v256h-120.533v-53.333h67.2v-202.667zM194.295 57.623q-29.439 0-51.056 21.616-21.616 21.617-21.616 51.056v635.409q0 29.543 21.616 51.235 21.617 21.693 51.056 21.693h635.409q29.543 0 51.235-21.693t21.693-51.235v-635.409q0-29.439-21.693-51.056-21.692-21.616-51.235-21.616h-635.409zM194.295 130.295h635.409v635.409h-635.409v-635.409zM194.295 765.705v0z" />
<glyph unicode="&#xe902;" glyph-name="k-fill" d="M525.867 320h53.333v96l89.6-96h70.4l-119.467 128 119.467 128h-70.4l-89.6-96v96h-53.333v-256zM358.4 320h53.333v256h-120.533v-53.333h67.2v-202.667zM194.295 57.623q-29.439 0-51.056 21.616-21.616 21.617-21.616 51.056v635.409q0 29.543 21.616 51.235 21.617 21.693 51.056 21.693h635.409q29.543 0 51.235-21.693t21.693-51.235v-635.409q0-29.439-21.693-51.056-21.692-21.616-51.235-21.616h-635.409z" />
<glyph unicode="&#xe903;" glyph-name="k" d="M525.867 320h53.333v96l89.546-96h70.199l-119.212 128 119.212 128h-70.199l-89.546-96v96h-53.333v-256zM358.4 320h53.333v256h-120.533v-53.333h67.2v-202.667zM194.295 57.623q-29.439 0-51.056 21.616-21.616 21.617-21.616 51.056v635.409q0 29.543 21.616 51.235 21.617 21.693 51.056 21.693h635.409q29.543 0 51.235-21.693t21.693-51.235v-635.409q0-29.439-21.693-51.056-21.692-21.616-51.235-21.616h-635.409zM194.295 130.295h635.409v635.409h-635.409v-635.409zM194.295 765.705v0z" />
<glyph unicode="&#xe904;" glyph-name="x_mobiledata_badge-fill" d="M108.962 57.623q-29.426 0-51.050 21.622-21.622 21.623-21.622 51.050v635.409q0 29.426 21.622 51.177 21.623 21.751 51.050 21.751h806.076q29.426 0 51.177-21.751t21.751-51.177v-635.409q0-29.426-21.751-51.050-21.75-21.622-51.177-21.622h-806.076zM297.484 234.667h69.612v425.6h-154.272v-69.867h84.66v-355.733zM483.524 234.667h76.986l88.881 160.441 91.014-160.441h75.919l-123.686 220.243 115.71 206.423h-76.731l-81.971-147.686-83.037 147.686h-76.986l116.777-206.423-122.876-220.243z" />
<glyph unicode="&#xe905;" glyph-name="x_mobiledata_badge" d="M108.962 57.623q-29.439 0-51.056 21.616t-21.616 51.056v635.409q0 29.543 21.616 51.235 21.617 21.693 51.056 21.693h806.076q29.543 0 51.235-21.693t21.693-51.235v-635.409q0-29.439-21.693-51.056-21.692-21.616-51.235-21.616h-806.076zM108.962 130.295h806.076v635.409h-806.076v-635.409zM108.962 130.295v0zM297.484 234.667h69.612v426.667h-154.272v-69.867h84.66v-356.8zM483.524 234.667h76.986l88.881 160.441 91.014-160.441h75.919l-123.686 220.243 115.71 206.423h-76.731l-81.971-147.686-83.037 147.686h-76.986l116.777-206.423-122.876-220.243z" />
<glyph unicode="&#xe906;" glyph-name="x_mobiledata-fill" d="M254.817 234.667v356.15h-84.66v69.705h154.272v-425.855h-69.612zM461.286 234.667l137.763 227.2-122.83 199.467h81.809l82.481-135.861 78.469 135.861h80.487l-117.241-199.467 134.307-227.2h-80.487l-95.536 163.85-97.414-163.85h-81.809z" />
<glyph unicode="&#xe907;" glyph-name="x_mobiledata" d="M254.817 234.667v356.8h-84.66v69.867h154.272v-426.667h-69.612zM461.286 234.667l137.763 227.2-122.83 199.467h81.809l82.481-135.861 78.469 135.861h80.487l-117.241-199.467 134.307-227.2h-80.487l-95.536 163.85-97.414-163.85h-81.809z" />
<glyph unicode="&#xe908;" glyph-name="k_plus-fill1" d="M722.087 362.667h42.667v67.2h64.95v35.2h-64.95v68.267h-42.667v-68.267h-67.2v-35.2h67.2v-67.2zM498.342 320h53.333v96l89.6-96h70.4l-119.467 128 119.467 128h-70.4l-89.6-96v96h-53.333v-256zM257.786 320h177.067v53.333h-131.2v56.533h96q14.933 0 25.067 10.133t10.133 25.067v74.667q0 14.933-10.133 25.6t-25.067 10.667h-141.867v-53.333h123.733v-57.6h-88.533q-15.188 0-25.195-10.133-10.005-10.133-10.005-25.067v-109.867zM194.295 57.623q-29.439 0-51.056 21.616-21.616 21.617-21.616 51.056v635.409q0 29.543 21.616 51.235 21.617 21.693 51.056 21.693h635.409q29.543 0 51.235-21.693t21.693-51.235v-635.409q0-29.439-21.693-51.056-21.692-21.616-51.235-21.616h-635.409z" />
<glyph unicode="&#xe909;" glyph-name="k_plus1" d="M722.087 362.667h42.667v67.2h64.95v35.2h-64.95v68.267h-42.667v-68.267h-67.2v-35.2h67.2v-67.2zM498.342 320h53.333v96l89.49-96h69.999l-118.956 128 118.956 128h-69.999l-89.49-96v96h-53.333v-256zM257.786 320h177.067v53.333h-123.733v56.533h88.533q14.96 0 25.079 10.119 10.121 10.121 10.121 25.081v74.667q0 15.413-10.121 25.84-10.119 10.427-25.079 10.427h-141.867v-53.333h123.733v-57.6h-88.533q-15.215 0-25.207-10.119-9.993-10.121-9.993-25.081v-109.867zM194.295 57.623q-29.439 0-51.056 21.616-21.616 21.617-21.616 51.056v635.409q0 29.543 21.616 51.235 21.617 21.693 51.056 21.693h635.409q29.543 0 51.235-21.693t21.693-51.235v-635.409q0-29.439-21.693-51.056-21.692-21.616-51.235-21.616h-635.409zM194.295 130.295h635.409v635.409h-635.409v-635.409zM194.295 765.705v0z" />
<glyph unicode="&#xe90a;" glyph-name="k-fill1" d="M554.667 320h53.333v96l89.6-96h70.4l-119.467 128 119.467 128h-70.4l-89.6-96v96h-53.333v-256zM289.531 320h181.333v53.333h-128v56.533h91.733q14.933 0 25.6 10.133t10.667 25.067v74.667q0 14.933-10.667 25.6t-25.6 10.667h-145.067v-53.333h128v-57.6h-92.8q-14.933 0-25.067-10.133t-10.133-25.067v-109.867zM194.295 57.623q-29.439 0-51.056 21.616-21.616 21.617-21.616 51.056v635.409q0 29.543 21.616 51.235 21.617 21.693 51.056 21.693h635.409q29.543 0 51.235-21.693t21.693-51.235v-635.409q0-29.439-21.693-51.056-21.692-21.616-51.235-21.616h-635.409z" />
<glyph unicode="&#xe90b;" glyph-name="k1" d="M554.667 320h53.333v96l89.546-96h70.199l-119.212 128 119.212 128h-70.199l-89.546-96v96h-53.333v-256zM289.531 320h181.333v53.333h-128v56.533h91.733q15.413 0 25.84 10.119 10.427 10.121 10.427 25.081v74.667q0 15.413-10.427 25.84t-25.84 10.427h-145.067v-53.333h128v-57.6h-92.8q-14.96 0-25.081-10.119-10.119-10.121-10.119-25.081v-109.867zM194.295 57.623q-29.439 0-51.056 21.616-21.616 21.617-21.616 51.056v635.409q0 29.543 21.616 51.235 21.617 21.693 51.056 21.693h635.409q29.543 0 51.235-21.693t21.693-51.235v-635.409q0-29.439-21.693-51.056-21.692-21.616-51.235-21.616h-635.409zM194.295 130.295h635.409v635.409h-635.409v-635.409zM194.295 765.705v0z" />
<glyph unicode="&#xe90c;" glyph-name="mp-fill" d="M248.533 162.295h53.333v200.371h56.533v-134.446h53.333v134.446h64v-200.371h53.333v211.038q0 14.933-13.867 28.8t-28.8 13.867h-195.2q-14.933 0-28.8-13.867t-13.867-28.8v-211.038zM421.333 477.705h181.333v53.333h-128v56.533h85.333q14.933 0 28.8 13.867t13.867 28.8v60.8q0 14.933-13.867 28.8t-28.8 13.867h-138.667v-53.333h128v-57.6h-85.333q-14.933 0-28.8-13.867t-13.867-28.8v-102.4zM593.067 162.295h53.333v66.18h85.333q14.933 0 28.8 13.739t13.867 28.928v102.118q0 14.964-13.867 28.851-13.867 13.888-28.8 13.888h-138.667v-253.705zM646.4 281.809v80.858h74.667v-80.858h-74.667zM194.295 57.623q-29.439 0-51.056 21.616-21.616 21.617-21.616 51.056v635.409q0 29.543 21.616 51.235 21.617 21.693 51.056 21.693h635.409q29.543 0 51.235-21.693t21.693-51.235v-635.409q0-29.439-21.693-51.056-21.692-21.616-51.235-21.616h-635.409z" />
<glyph unicode="&#xe90d;" glyph-name="mp" d="M248.533 162.295h53.333v200.371h56.533v-134.446h53.333v134.446h64v-200.371h53.333v211.038q0 14.933-13.867 28.8t-28.8 13.867h-195.2q-14.933 0-28.8-13.867t-13.867-28.8v-211.038zM421.333 477.705h181.333v53.333h-128v56.533h85.333q14.933 0 28.8 13.867t13.867 28.8v60.8q0 14.933-13.867 28.8t-28.8 13.867h-138.667v-53.333h128v-57.6h-85.333q-14.933 0-28.8-13.867t-13.867-28.8v-102.4zM593.067 162.295h53.333v66.18h85.333q14.933 0 28.8 13.739t13.867 28.928v102.118q0 14.964-13.867 28.851-13.867 13.888-28.8 13.888h-138.667v-253.705zM646.4 281.809v80.858h74.667v-80.858h-74.667zM194.295 57.623q-29.439 0-51.056 21.616-21.616 21.617-21.616 51.056v635.409q0 29.543 21.616 51.235 21.617 21.693 51.056 21.693h635.409q29.543 0 51.235-21.693t21.693-51.235v-635.409q0-29.439-21.693-51.056-21.692-21.616-51.235-21.616h-635.409zM194.295 130.295h635.409v635.409h-635.409v-635.409zM194.295 765.705v0z" />
<glyph unicode="&#xe90e;" glyph-name="d_rotation-fill" d="M512 14.957q-88.969 0-167.867 34.049t-137.927 93.136-93.139 137.988-34.11 167.87h72.672q0-133.065 87.942-235.030 87.941-101.967 222.179-121.12l-64.046 64.046 45.983 45.983 172.939-173.195q-25.507-8.997-51.746-11.362t-52.88-2.365zM544.464 311.467v274.133h137.205q19.947 0 33.44-13.493t13.493-33.44v-180.267q0-19.947-13.493-33.44t-33.44-13.493h-137.205zM299.269 311.467v53.797h129.531v62.469h-84.939v41.6h84.939v61.403h-129.531v54.864h137.461q19.947 0 33.44-13.493t13.493-33.44v-180.267q0-19.947-13.493-33.44t-33.44-13.493h-137.461zM598.005 365.264h75.733v165.472h-75.733v-165.472zM872.371 448q0 134.231-87.281 235.742t-221.774 120.409l62.979-62.979-45.983-45.983-172.939 173.195q25.507 8.997 51.746 10.957t52.88 1.959q89.441 0 168.106-34.238t137.692-93.264 93.264-137.692q34.238-78.665 34.238-168.106h-72.928z" />
<glyph unicode="&#xe90f;" glyph-name="d_rotation" d="M512 14.957q-88.969 0-167.867 34.049t-137.927 93.136-93.139 137.988-34.11 167.87h72.672q0-133.065 87.942-235.030 87.941-101.967 222.179-121.12l-64.046 64.046 45.983 45.983 172.939-173.195q-25.507-8.997-51.746-11.362t-52.88-2.365zM544.464 311.467v274.133h137.205q19.947 0 33.44-13.493t13.493-33.44v-180.267q0-19.947-13.493-33.44t-33.44-13.493h-137.205zM299.269 311.467v53.797h129.531v62.469h-84.939v41.6h84.939v61.403h-129.531v54.864h137.461q19.947 0 33.44-13.493t13.493-33.44v-180.267q0-19.947-13.493-33.44t-33.44-13.493h-137.461zM598.005 365.264h75.733v165.472h-75.733v-165.472zM872.371 448q0 134.231-87.281 235.742t-221.774 120.409l62.979-62.979-45.983-45.983-172.939 173.195q25.507 8.997 51.746 10.957t52.88 1.959q89.441 0 168.106-34.238t137.692-93.264 93.264-137.692q34.238-78.665 34.238-168.106h-72.928z" />
<glyph unicode="&#xe910;" glyph-name="g_mobiledata_badge-fill" d="M108.962 57.623q-29.439 0-51.056 21.616t-21.616 51.056v635.409q0 29.543 21.616 51.235 21.617 21.693 51.056 21.693h806.076q29.543 0 51.235-21.693t21.693-51.235v-635.409q0-29.439-21.693-51.056-21.692-21.616-51.235-21.616h-806.076zM813.472 482.643h-134.122v-67.060h65.578v-111.050h-153.925v286.933h222.469q-3.2 28.020-22.315 48.943t-46.229 20.924h-153.925q-28.641 0-49.253-20.612-20.613-20.613-20.613-49.254v-286.933q0-28.641 20.613-49.254 20.612-20.612 49.253-20.612h153.925q28.962 0 48.753 20.612t19.791 49.254v178.11zM210.528 234.667h176.603q28.641 0 49.253 20.612 20.613 20.613 20.613 49.254v79.861q0 25.334-14.678 43.554t-37.588 18.985q23.977 0.765 38.122 19.696 14.145 18.93 14.145 43.909v80.928q0 28.641-20.613 49.254t-49.253 20.612h-176.603v-69.867h176.603v-109.936h-174.469v-67.061h174.469v-109.936h-176.603v-69.867z" />
<glyph unicode="&#xe911;" glyph-name="g_mobiledata_badge" d="M108.962 57.623q-29.439 0-51.056 21.616t-21.616 51.056v635.409q0 29.543 21.616 51.235 21.617 21.693 51.056 21.693h806.076q29.543 0 51.235-21.693t21.693-51.235v-635.409q0-29.439-21.693-51.056-21.692-21.616-51.235-21.616h-806.076zM108.962 130.295h806.076v635.409h-806.076v-635.409zM108.962 130.295v0zM813.472 482.643h-134.122v-67.060h65.578v-111.050h-153.925v286.933h222.469q-3.2 28.020-22.315 48.943t-46.229 20.924h-153.925q-28.641 0-49.253-20.612-20.613-20.613-20.613-49.254v-286.933q0-28.641 20.613-49.254 20.612-20.612 49.253-20.612h153.925q28.962 0 48.753 20.612t19.791 49.254v178.11zM210.528 234.667h176.603q28.641 0 49.253 20.612 20.613 20.613 20.613 49.254v79.861q0 25.334-14.678 43.554t-37.588 18.985q23.977 0.765 38.122 19.696 14.145 18.93 14.145 43.909v80.928q0 28.641-20.613 49.254t-49.253 20.612h-176.603v-69.867h176.603v-109.936h-174.469v-67.061h174.469v-109.936h-176.603v-69.867z" />
<glyph unicode="&#xe912;" glyph-name="g_mobiledata-fill" d="M125.195 234.667v69.867h219.269v109.936h-217.136v67.061h217.136v109.936h-219.269v69.867h219.269q28.641 0 49.253-20.612 20.613-20.613 20.613-49.254v-80.928q0-24.979-14.145-43.909-14.145-18.931-38.122-19.696 22.91-0.765 37.588-18.985t14.678-43.554v-79.861q0-28.641-20.613-49.254-20.612-20.612-49.253-20.612h-219.269zM898.805 482.643v-178.11q0-28.641-19.791-49.254-19.791-20.612-48.753-20.612h-239.259q-28.641 0-49.253 20.612t-20.613 49.254v286.933q0 28.641 20.613 49.254 20.612 20.612 49.253 20.612h239.259q27.114 0 46.229-20.924t22.315-48.943h-307.803v-286.933h239.259v111.050h-107.061v67.060h175.605z" />
<glyph unicode="&#xe913;" glyph-name="g_mobiledata" d="M125.195 234.667v69.867h219.269v109.936h-217.136v67.061h217.136v109.936h-219.269v69.867h219.269q28.641 0 49.253-20.612 20.613-20.613 20.613-49.254v-80.928q0-24.979-14.145-43.909-14.145-18.931-38.122-19.696 22.91-0.765 37.588-18.985t14.678-43.554v-79.861q0-28.641-20.613-49.254-20.612-20.612-49.253-20.612h-219.269zM898.805 482.643v-178.11q0-28.641-19.791-49.254-19.791-20.612-48.753-20.612h-239.259q-28.641 0-49.253 20.612t-20.613 49.254v286.933q0 28.641 20.613 49.254 20.612 20.612 49.253 20.612h239.259q27.114 0 46.229-20.924t22.315-48.943h-307.803v-286.933h239.259v111.050h-107.061v67.060h175.605z" />
<glyph unicode="&#xe914;" glyph-name="k_plus-fill2" d="M722.087 362.667h42.667v67.2h64.95v35.2h-64.95v68.267h-42.667v-68.267h-67.2v-35.2h67.2v-67.2zM501.148 320h53.333v96l89.6-96h70.4l-119.467 128 119.467 128h-70.4l-89.6-96v96h-53.333v-256zM242.714 320h146.133q14.933 0 25.067 10.133t10.133 25.067v184.533q0 14.933-10.133 25.6t-25.067 10.667h-146.133v-53.333h128v-57.6h-85.333v-35.2h85.333v-56.533h-128v-53.333zM194.295 57.623q-29.439 0-51.056 21.616-21.616 21.617-21.616 51.056v635.409q0 29.543 21.616 51.235 21.617 21.693 51.056 21.693h635.409q29.543 0 51.235-21.693t21.693-51.235v-635.409q0-29.439-21.693-51.056-21.692-21.616-51.235-21.616h-635.409z" />
<glyph unicode="&#xe915;" glyph-name="k_plus2" d="M722.087 362.667h42.667v67.2h64.95v35.2h-64.95v68.267h-42.667v-68.267h-67.2v-35.2h67.2v-67.2zM501.148 320h53.333v96l89.49-96h70l-118.957 128 118.957 128h-70l-89.49-96v96h-53.333v-256zM242.714 320h145.873q15.194 0 25.327 10.119 10.133 10.121 10.133 25.081v184.533q0 15.413-10.121 25.84-10.119 10.427-25.079 10.427h-146.133v-53.333h128v-57.6h-85.333v-35.2h85.333v-56.533h-128v-53.333zM194.295 57.623q-29.439 0-51.056 21.616-21.616 21.617-21.616 51.056v635.409q0 29.543 21.616 51.235 21.617 21.693 51.056 21.693h635.409q29.543 0 51.235-21.693t21.693-51.235v-635.409q0-29.439-21.693-51.056-21.692-21.616-51.235-21.616h-635.409zM194.295 130.295h635.409v635.409h-635.409v-635.409zM194.295 765.705v0z" />
<glyph unicode="&#xe916;" glyph-name="k-fill2" d="M554.667 320h53.333v96l89.6-96h70.4l-119.467 128 119.467 128h-70.4l-89.6-96v96h-53.333v-256zM260.731 320h146.133q14.933 0 25.067 10.133t10.133 25.067v184.533q0 14.933-10.133 25.6t-25.067 10.667h-146.133v-53.333h128v-57.6h-77.867v-35.2h77.867v-56.533h-128v-53.333zM194.295 57.623q-29.439 0-51.056 21.616-21.616 21.617-21.616 51.056v635.409q0 29.543 21.616 51.235 21.617 21.693 51.056 21.693h635.409q29.543 0 51.235-21.693t21.693-51.235v-635.409q0-29.439-21.693-51.056-21.692-21.616-51.235-21.616h-635.409z" />
<glyph unicode="&#xe917;" glyph-name="k2" d="M554.667 320h53.333v96l89.546-96h70.199l-119.212 128 119.212 128h-70.199l-89.546-96v96h-53.333v-256zM260.731 320h145.874q15.193 0 25.326 10.119 10.133 10.121 10.133 25.081v184.533q0 15.413-10.121 25.84-10.119 10.427-25.079 10.427h-146.133v-53.333h128v-57.6h-77.867v-35.2h77.867v-56.533h-128v-53.333zM194.295 57.623q-29.439 0-51.056 21.616-21.616 21.617-21.616 51.056v635.409q0 29.543 21.616 51.235 21.617 21.693 51.056 21.693h635.409q29.543 0 51.235-21.693t21.693-51.235v-635.409q0-29.439-21.693-51.056-21.692-21.616-51.235-21.616h-635.409zM194.295 130.295h635.409v635.409h-635.409v-635.409zM194.295 765.705v0z" />
<glyph unicode="&#xe918;" glyph-name="mp-fill1" d="M397.867 477.705h138.667q14.933 0 28.8 13.867t13.867 28.8v170.667q0 14.933-13.867 28.8t-28.8 13.867h-138.667v-53.333h128v-57.6h-77.867v-35.2h77.867v-56.533h-128v-53.333zM248.533 162.295h53.333v200.371h56.533v-134.446h53.333v134.446h64v-200.371h53.333v211.038q0 14.933-13.867 28.8t-28.8 13.867h-195.2q-14.933 0-28.8-13.867t-13.867-28.8v-211.038zM593.067 162.295h53.333v66.18h85.333q14.933 0 28.8 13.739t13.867 28.928v102.118q0 14.964-13.867 28.851-13.867 13.888-28.8 13.888h-138.667v-253.705zM646.4 281.809v80.858h74.667v-80.858h-74.667zM194.295 57.623q-29.439 0-51.056 21.616-21.616 21.617-21.616 51.056v635.409q0 29.543 21.616 51.235 21.617 21.693 51.056 21.693h635.409q29.543 0 51.235-21.693t21.693-51.235v-635.409q0-29.439-21.693-51.056-21.692-21.616-51.235-21.616h-635.409z" />
<glyph unicode="&#xe919;" glyph-name="mp1" d="M397.867 477.705h138.667q14.933 0 28.8 13.867t13.867 28.8v170.667q0 14.933-13.867 28.8t-28.8 13.867h-138.667v-53.333h128v-57.6h-77.867v-35.2h77.867v-56.533h-128v-53.333zM248.533 162.295h53.333v200.371h56.533v-134.446h53.333v134.446h64v-200.371h53.333v211.038q0 14.933-13.867 28.8t-28.8 13.867h-195.2q-14.933 0-28.8-13.867t-13.867-28.8v-211.038zM593.067 162.295h53.333v66.18h85.333q14.933 0 28.8 13.739t13.867 28.928v102.118q0 14.964-13.867 28.851-13.867 13.888-28.8 13.888h-138.667v-253.705zM646.4 281.809v80.858h74.667v-80.858h-74.667zM194.295 57.623q-29.439 0-51.056 21.616-21.616 21.617-21.616 51.056v635.409q0 29.543 21.616 51.235 21.617 21.693 51.056 21.693h635.409q29.543 0 51.235-21.693t21.693-51.235v-635.409q0-29.439-21.693-51.056-21.692-21.616-51.235-21.616h-635.409zM194.295 130.295h635.409v635.409h-635.409v-635.409zM194.295 765.705v0z" />
<glyph unicode="&#xe91a;" glyph-name="p-fill" d="M338.528 360.116h346.944v21.796q0 45.056-46.098 70.226-46.098 25.171-127.374 25.171t-127.374-25.171q-46.098-25.17-46.098-70.226v-21.796zM511.968 547.71q33.863 0 57.18 23.157t23.316 57.020-23.284 57.18-57.148 23.316-57.18-23.284-23.316-57.148 23.284-57.053 57.148-23.188zM78.957 14.957v793.414q0 28.477 21.616 50.702 21.617 22.226 51.056 22.226h720.742q28.477 0 50.702-22.226t22.226-50.702v-550.076q0-28.372-22.226-50.523-22.225-22.149-50.702-22.149h-622.748l-170.667-170.667z" />
<glyph unicode="&#xe91b;" glyph-name="p" d="M338.528 360.116h346.944v21.796q0 45.056-46.098 70.226-46.098 25.171-127.374 25.171t-127.374-25.171q-46.098-25.17-46.098-70.226v-21.796zM511.968 547.71q33.357 0 56.927 23.41t23.569 56.767-23.538 56.927q-23.537 23.569-56.894 23.569t-56.927-23.538q-23.569-23.537-23.569-56.894t23.538-56.799q23.537-23.442 56.894-23.442zM78.957 14.957v793.414q0 28.477 21.616 50.702 21.617 22.226 51.056 22.226h720.742q28.477 0 50.702-22.226t22.226-50.702v-550.076q0-28.372-22.226-50.523-22.225-22.149-50.702-22.149h-622.748l-170.667-170.667zM151.629 185.183l73.114 73.113h647.629v550.076h-720.742v-623.188zM151.629 808.371v0z" />
<glyph unicode="&#xe91c;" glyph-name="g_mobiledata_badge-fill1" d="M108.962 57.623q-29.439 0-51.056 21.616t-21.616 51.056v635.409q0 29.543 21.616 51.235 21.617 21.693 51.056 21.693h806.076q29.543 0 51.235-21.693t21.693-51.235v-635.409q0-29.439-21.693-51.056-21.692-21.616-51.235-21.616h-806.076zM850.783 482.643h-107.27v-67.060h38.725v-111.050h-150.099v286.933h218.644q-3.2 28.020-22.316 48.943t-46.229 20.924h-150.099q-28.641 0-49.253-20.612-20.613-20.613-20.613-49.254v-286.933q0-28.641 20.613-49.254 20.612-20.612 49.253-20.612h150.099q28.962 0 48.753 20.612t19.792 49.254v178.11zM346.11 234.667h69.612v132.8h83.014v69.867h-83.014v224h-69.612v-224h-103.281v224h-69.867v-293.867h173.148v-132.8z" />
<glyph unicode="&#xe91d;" glyph-name="g_mobiledata_badge1" d="M108.962 57.623q-29.439 0-51.056 21.616t-21.616 51.056v635.409q0 29.543 21.616 51.235 21.617 21.693 51.056 21.693h806.076q29.543 0 51.235-21.693t21.693-51.235v-635.409q0-29.439-21.693-51.056-21.692-21.616-51.235-21.616h-806.076zM108.962 130.295h806.076v635.409h-806.076v-635.409zM108.962 130.295v0zM850.783 482.643h-107.27v-67.060h38.725v-111.050h-150.099v286.933h218.644q-3.2 28.020-22.316 48.943t-46.229 20.924h-150.099q-28.641 0-49.253-20.612-20.613-20.613-20.613-49.254v-286.933q0-28.641 20.613-49.254 20.612-20.612 49.253-20.612h150.099q28.962 0 48.753 20.612t19.792 49.254v178.11zM346.11 234.667h69.612v135.605h83.014v69.867h-83.014v221.195h-69.612v-221.195h-103.281v221.195h-69.867v-291.061h173.148v-135.605z" />
<glyph unicode="&#xe91e;" glyph-name="g_mobiledata-fill1" d="M300.128 231.861v135.605h-177.995v291.061h69.867v-221.195h108.128v221.195h69.611v-221.195h87.861v-69.867h-87.861v-135.605h-69.611zM901.867 479.583v-178.111q0-28.695-19.857-49.153t-48.943-20.458h-240.533q-28.641 0-49.254 20.458-20.612 20.458-20.612 49.153v287.188q0 28.642 20.612 49.254 20.613 20.613 49.254 20.613h240.533q27.060 0 46.33-21.013t22.47-48.854h-309.333v-287.188h240.533v111.050h-107.061v67.061h175.861z" />
<glyph unicode="&#xe91f;" glyph-name="g_mobiledata1" d="M300.128 231.861v135.605h-177.995v291.061h69.867v-221.195h108.128v221.195h69.611v-221.195h87.861v-69.867h-87.861v-135.605h-69.611zM901.867 479.583v-178.111q0-28.695-19.857-49.153t-48.943-20.458h-240.533q-28.641 0-49.254 20.458-20.612 20.458-20.612 49.153v287.188q0 28.642 20.612 49.254 20.613 20.613 49.254 20.613h240.533q27.060 0 46.33-21.013t22.47-48.854h-309.333v-287.188h240.533v111.050h-107.061v67.061h175.861z" />
<glyph unicode="&#xe920;" glyph-name="g_plus_mobiledata-fill" d="M869.333 322.783v90.667h-90.667v67.060h90.667v90.667h66.805v-90.667h90.667v-67.060h-90.667v-90.667h-66.805zM210.528 233.136v128.997h-170.667v294.864h69.611v-224.997h101.056v224.997h69.611v-224.997h48.905v-69.867h-48.905v-128.997h-69.611zM722.852 477.45v-175.978q0-28.695-20.444-49.153t-49.423-20.458h-193.183q-28.641 0-49.253 20.458-20.613 20.458-20.613 49.153v287.188q0 28.642 20.613 49.254t49.253 20.613h193.183q27.66 0 47.163-20.48t22.704-49.388h-263.050v-287.188h193.183v108.916h-79.977v67.061h149.843z" />
<glyph unicode="&#xe921;" glyph-name="g_plus_mobiledata" d="M869.333 322.783v90.667h-90.667v67.060h90.667v90.667h66.805v-90.667h90.667v-67.060h-90.667v-90.667h-66.805zM210.528 233.136v128.997h-170.667v294.864h69.611v-224.997h101.056v224.997h69.611v-224.997h48.905v-69.867h-48.905v-128.997h-69.611zM722.852 477.45v-175.978q0-28.695-20.444-49.153t-49.423-20.458h-193.183q-28.641 0-49.253 20.458-20.613 20.458-20.613 49.153v287.188q0 28.642 20.613 49.254t49.253 20.613h193.183q27.66 0 47.163-20.48t22.704-49.388h-263.050v-287.188h193.183v108.916h-79.977v67.061h149.843z" />
<glyph unicode="&#xe922;" glyph-name="k_plus-fill3" d="M722.087 362.667h42.667v67.2h64.95v35.2h-64.95v68.267h-42.667v-68.267h-67.2v-35.2h67.2v-67.2zM502.609 320h53.333v96l89.6-96h70.4l-119.467 128 119.467 128h-70.4l-89.6-96v96h-53.333v-256zM367.588 320h53.525v67.2h42.029v53.333h-42.029v135.467h-53.525v-135.467h-66.626v135.467h-53.333v-188.8h119.959v-67.2zM194.295 57.623q-29.439 0-51.056 21.616-21.616 21.617-21.616 51.056v635.409q0 29.543 21.616 51.235 21.617 21.693 51.056 21.693h635.409q29.543 0 51.235-21.693t21.693-51.235v-635.409q0-29.439-21.693-51.056-21.692-21.616-51.235-21.616h-635.409z" />
<glyph unicode="&#xe923;" glyph-name="k_plus3" d="M722.087 362.667h42.667v67.2h64.95v35.2h-64.95v68.267h-42.667v-68.267h-67.2v-35.2h67.2v-67.2zM502.609 320h53.333v96l89.49-96h69.999l-118.956 128 118.956 128h-69.999l-89.49-96v96h-53.333v-256zM367.588 320h53.525v67.2h42.029v53.333h-42.029v135.467h-53.525v-135.467h-66.626v135.467h-53.333v-188.8h119.959v-67.2zM194.295 57.623q-29.439 0-51.056 21.616-21.616 21.617-21.616 51.056v635.409q0 29.543 21.616 51.235 21.617 21.693 51.056 21.693h635.409q29.543 0 51.235-21.693t21.693-51.235v-635.409q0-29.439-21.693-51.056-21.692-21.616-51.235-21.616h-635.409zM194.295 130.295h635.409v635.409h-635.409v-635.409zM194.295 765.705v0z" />
<glyph unicode="&#xe924;" glyph-name="k-fill3" d="M554.667 320h53.333v96l89.6-96h70.4l-119.467 128 119.467 128h-70.4l-89.6-96v96h-53.333v-256zM396.197 320h53.333v67.2h42.667v53.333h-42.667v135.467h-53.333v-135.467h-68.267v135.467h-53.333v-188.8h121.6v-67.2zM194.295 57.623q-29.439 0-51.056 21.616-21.616 21.617-21.616 51.056v635.409q0 29.543 21.616 51.235 21.617 21.693 51.056 21.693h635.409q29.543 0 51.235-21.693t21.693-51.235v-635.409q0-29.439-21.693-51.056-21.692-21.616-51.235-21.616h-635.409z" />
<glyph unicode="&#xe925;" glyph-name="k3" d="M554.667 320h53.333v96l89.546-96h70.199l-119.212 128 119.212 128h-70.199l-89.546-96v96h-53.333v-256zM396.197 320h53.333v67.2h42.667v53.333h-42.667v135.467h-53.333v-135.467h-68.267v135.467h-53.333v-188.8h121.6v-67.2zM194.295 57.623q-29.439 0-51.056 21.616-21.616 21.617-21.616 51.056v635.409q0 29.543 21.616 51.235 21.617 21.693 51.056 21.693h635.409q29.543 0 51.235-21.693t21.693-51.235v-635.409q0-29.439-21.693-51.056-21.692-21.616-51.235-21.616h-635.409zM194.295 130.295h635.409v635.409h-635.409v-635.409zM194.295 765.705v0z" />
<glyph unicode="&#xe926;" glyph-name="mp-fill2" d="M515.2 477.705h53.333v67.2h28.8v53.333h-28.8v135.467h-53.333v-135.467h-82.133v135.467h-53.333v-188.8h135.467v-67.2zM248.533 162.295h53.333v200.371h56.533v-134.446h53.333v134.446h64v-200.371h53.333v211.038q0 14.933-13.867 28.8t-28.8 13.867h-195.2q-14.933 0-28.8-13.867t-13.867-28.8v-211.038zM593.067 162.295h53.333v66.18h85.333q14.933 0 28.8 13.739t13.867 28.928v102.118q0 14.964-13.867 28.851-13.867 13.888-28.8 13.888h-138.667v-253.705zM646.4 281.809v80.858h74.667v-80.858h-74.667zM194.295 57.623q-29.439 0-51.056 21.616-21.616 21.617-21.616 51.056v635.409q0 29.543 21.616 51.235 21.617 21.693 51.056 21.693h635.409q29.543 0 51.235-21.693t21.693-51.235v-635.409q0-29.439-21.693-51.056-21.692-21.616-51.235-21.616h-635.409z" />
<glyph unicode="&#xe927;" glyph-name="mp2" d="M515.2 477.705h53.333v67.2h28.8v53.333h-28.8v135.467h-53.333v-135.467h-82.133v135.467h-53.333v-188.8h135.467v-67.2zM248.533 162.295h53.333v200.371h56.533v-134.446h53.333v134.446h64v-200.371h53.333v211.038q0 14.933-13.867 28.8t-28.8 13.867h-195.2q-14.933 0-28.8-13.867t-13.867-28.8v-211.038zM593.067 162.295h53.333v66.18h85.333q14.933 0 28.8 13.739t13.867 28.928v102.118q0 14.964-13.867 28.851-13.867 13.888-28.8 13.888h-138.667v-253.705zM646.4 281.809v80.858h74.667v-80.858h-74.667zM194.295 57.623q-29.439 0-51.056 21.616-21.616 21.617-21.616 51.056v635.409q0 29.543 21.616 51.235 21.617 21.693 51.056 21.693h635.409q29.543 0 51.235-21.693t21.693-51.235v-635.409q0-29.439-21.693-51.056-21.692-21.616-51.235-21.616h-635.409zM194.295 130.295h635.409v635.409h-635.409v-635.409zM194.295 765.705v0z" />
<glyph unicode="&#xe928;" glyph-name="g_mobiledata_badge-fill2" d="M108.962 57.623q-29.439 0-51.056 21.616t-21.616 51.056v635.409q0 29.543 21.616 51.235 21.617 21.693 51.056 21.693h806.076q29.543 0 51.235-21.693t21.693-51.235v-635.409q0-29.439-21.693-51.056-21.692-21.616-51.235-21.616h-806.076zM813.472 482.643h-134.122v-67.060h65.578v-111.050h-153.925v286.933h222.469q-3.2 28.020-22.315 48.943t-46.229 20.924h-153.925q-28.641 0-49.253-20.612-20.613-20.613-20.613-49.254v-286.933q0-28.641 20.613-49.254 20.612-20.612 49.253-20.612h153.925q28.962 0 48.753 20.612t19.791 49.254v178.11zM210.528 234.667h190.469q28.641 0 49.253 20.612 20.613 20.613 20.613 49.254v109.936q0 27.663-19.699 47.362t-47.362 19.699h-123.664v109.936h190.725v69.867h-260.336v-246.864h190.469v-109.936h-190.469v-69.867z" />
<glyph unicode="&#xe929;" glyph-name="g_mobiledata_badge2" d="M108.962 57.623q-29.439 0-51.056 21.616t-21.616 51.056v635.409q0 29.543 21.616 51.235 21.617 21.693 51.056 21.693h806.076q29.543 0 51.235-21.693t21.693-51.235v-635.409q0-29.439-21.693-51.056-21.692-21.616-51.235-21.616h-806.076zM108.962 130.295h806.076v635.409h-806.076v-635.409zM108.962 130.295v0zM813.472 482.643h-134.122v-67.060h65.578v-111.050h-153.925v286.933h222.469q-3.2 28.020-22.315 48.943t-46.229 20.924h-153.925q-28.641 0-49.253-20.612-20.613-20.613-20.613-49.254v-286.933q0-28.641 20.613-49.254 20.612-20.612 49.253-20.612h153.925q28.962 0 48.753 20.612t19.791 49.254v178.11zM210.528 234.667h190.469q28.641 0 49.253 20.612 20.613 20.613 20.613 49.254v109.936q0 27.663-19.699 47.362t-47.362 19.699h-123.664v109.936h190.725v69.867h-260.336v-246.864h190.469v-109.936h-190.469v-69.867z" />
<glyph unicode="&#xe92a;" glyph-name="g-fill" d="M125.195 234.667v69.867h233.136v109.936h-233.136v246.864h303.003v-69.867h-233.392v-109.936h166.331q27.663 0 47.362-19.699t19.699-47.362v-109.936q0-28.641-20.613-49.254-20.612-20.612-49.253-20.612h-233.136zM898.805 482.643v-178.11q0-28.641-19.791-49.254-19.791-20.612-48.753-20.612h-239.259q-28.641 0-49.253 20.612t-20.613 49.254v286.933q0 28.641 20.613 49.254 20.612 20.612 49.253 20.612h239.259q27.114 0 46.229-20.924t22.315-48.943h-307.803v-286.933h239.259v111.050h-107.061v67.060h175.605z" />
<glyph unicode="&#xe92b;" glyph-name="g" d="M125.195 234.667v69.867h233.136v109.936h-233.136v246.864h303.003v-69.867h-233.392v-109.936h166.331q27.663 0 47.362-19.699t19.699-47.362v-109.936q0-28.641-20.613-49.254-20.612-20.612-49.253-20.612h-233.136zM898.805 482.643v-178.11q0-28.641-19.791-49.254-19.791-20.612-48.753-20.612h-239.259q-28.641 0-49.253 20.612t-20.613 49.254v286.933q0 28.641 20.613 49.254 20.612 20.612 49.253 20.612h239.259q27.114 0 46.229-20.924t22.315-48.943h-307.803v-286.933h239.259v111.050h-107.061v67.060h175.605z" />
<glyph unicode="&#xe92c;" glyph-name="k_plus-fill4" d="M722.087 362.667h42.667v67.2h64.95v35.2h-64.95v68.267h-42.667v-68.267h-67.2v-35.2h67.2v-67.2zM498.342 320h53.333v96l89.6-96h70.4l-119.467 128 119.467 128h-70.4l-89.6-96v96h-53.333v-256zM250.319 320h141.867q14.933 0 25.6 10.133t10.667 25.067v74.667q0 14.933-10.667 25.067t-25.6 10.133h-88.533v57.6h124.8v53.333h-178.133v-146.133h124.8v-56.533h-124.8v-53.333zM194.295 57.623q-29.439 0-51.056 21.616-21.616 21.617-21.616 51.056v635.409q0 29.543 21.616 51.235 21.617 21.693 51.056 21.693h635.409q29.543 0 51.235-21.693t21.693-51.235v-635.409q0-29.439-21.693-51.056-21.692-21.616-51.235-21.616h-635.409z" />
<glyph unicode="&#xe92d;" glyph-name="k_plus4" d="M722.087 362.667h42.667v67.2h64.95v35.2h-64.95v68.267h-42.667v-68.267h-67.2v-35.2h67.2v-67.2zM498.342 320h53.333v96l89.49-96h69.999l-118.956 128 118.956 128h-69.999l-89.49-96v96h-53.333v-256zM250.319 320h141.867q15.413 0 25.84 10.119 10.427 10.121 10.427 25.081v74.667q0 14.96-10.427 25.081-10.427 10.119-25.84 10.119h-88.533v57.6h124.8v53.333h-178.133v-146.133h124.8v-56.533h-124.8v-53.333zM194.295 57.623q-29.439 0-51.056 21.616-21.616 21.617-21.616 51.056v635.409q0 29.543 21.616 51.235 21.617 21.693 51.056 21.693h635.409q29.543 0 51.235-21.693t21.693-51.235v-635.409q0-29.439-21.693-51.056-21.692-21.616-51.235-21.616h-635.409zM194.295 130.295h635.409v635.409h-635.409v-635.409zM194.295 765.705v0z" />
<glyph unicode="&#xe92e;" glyph-name="k-fill4" d="M554.667 320h53.333v96l89.6-96h70.4l-119.467 128 119.467 128h-70.4l-89.6-96v96h-53.333v-256zM274.597 320h146.133q14.933 0 25.067 10.133t10.133 25.067v74.667q0 14.933-10.133 25.067t-25.067 10.133h-92.8v57.6h128v53.333h-181.333v-146.133h128v-56.533h-128v-53.333zM194.295 57.623q-29.439 0-51.056 21.616-21.616 21.617-21.616 51.056v635.409q0 29.543 21.616 51.235 21.617 21.693 51.056 21.693h635.409q29.543 0 51.235-21.693t21.693-51.235v-635.409q0-29.439-21.693-51.056-21.692-21.616-51.235-21.616h-635.409z" />
<glyph unicode="&#xe92f;" glyph-name="k4" d="M554.667 320h53.333v96l89.546-96h70.199l-119.212 128 119.212 128h-70.199l-89.546-96v96h-53.333v-256zM274.597 320h145.874q15.193 0 25.326 10.119 10.133 10.121 10.133 25.081v74.667q0 14.96-10.121 25.081-10.119 10.119-25.079 10.119h-92.8v57.6h128v53.333h-181.333v-146.133h128v-56.533h-128v-53.333zM194.295 57.623q-29.439 0-51.056 21.616-21.616 21.617-21.616 51.056v635.409q0 29.543 21.616 51.235 21.617 21.693 51.056 21.693h635.409q29.543 0 51.235-21.693t21.693-51.235v-635.409q0-29.439-21.693-51.056-21.692-21.616-51.235-21.616h-635.409zM194.295 130.295h635.409v635.409h-635.409v-635.409zM194.295 765.705v0z" />
<glyph unicode="&#xe930;" glyph-name="mp-fill3" d="M397.867 477.705h138.667q14.933 0 28.8 13.867t13.867 28.8v59.733q0 14.933-13.867 28.8t-28.8 13.867h-85.333v57.6h128v53.333h-181.333v-146.133h128v-56.533h-128v-53.333zM248.533 162.295h53.333v200.371h56.533v-134.446h53.333v134.446h64v-200.371h53.333v211.038q0 14.933-13.867 28.8t-28.8 13.867h-195.2q-14.933 0-28.8-13.867t-13.867-28.8v-211.038zM593.067 162.295h53.333v66.18h85.333q14.933 0 28.8 13.739t13.867 28.928v102.118q0 14.964-13.867 28.851-13.867 13.888-28.8 13.888h-138.667v-253.705zM646.4 281.809v80.858h74.667v-80.858h-74.667zM194.295 57.623q-29.439 0-51.056 21.616-21.616 21.617-21.616 51.056v635.409q0 29.543 21.616 51.235 21.617 21.693 51.056 21.693h635.409q29.543 0 51.235-21.693t21.693-51.235v-635.409q0-29.439-21.693-51.056-21.692-21.616-51.235-21.616h-635.409z" />
<glyph unicode="&#xe931;" glyph-name="mp3" d="M397.867 477.705h138.667q14.933 0 28.8 13.867t13.867 28.8v59.733q0 14.933-13.867 28.8t-28.8 13.867h-85.333v57.6h128v53.333h-181.333v-146.133h128v-56.533h-128v-53.333zM248.533 162.295h53.333v200.371h56.533v-134.446h53.333v134.446h64v-200.371h53.333v211.038q0 14.933-13.867 28.8t-28.8 13.867h-195.2q-14.933 0-28.8-13.867t-13.867-28.8v-211.038zM593.067 162.295h53.333v66.18h85.333q14.933 0 28.8 13.739t13.867 28.928v102.118q0 14.964-13.867 28.851-13.867 13.888-28.8 13.888h-138.667v-253.705zM646.4 281.809v80.858h74.667v-80.858h-74.667zM194.295 57.623q-29.439 0-51.056 21.616-21.616 21.617-21.616 51.056v635.409q0 29.543 21.616 51.235 21.617 21.693 51.056 21.693h635.409q29.543 0 51.235-21.693t21.693-51.235v-635.409q0-29.439-21.693-51.056-21.692-21.616-51.235-21.616h-635.409zM194.295 130.295h635.409v635.409h-635.409v-635.409zM194.295 765.705v0z" />
<glyph unicode="&#xe932;" glyph-name="ft_apart-fill" d="M309.031 6.284q-7.42 0-12.858 5.438t-5.438 12.858v135.142q0 7.165 5.438 12.731t12.858 5.565h106.435v-38.122h-88.14v-32h69.844q7.42 0 12.858-5.438t5.438-12.858v-65.021q0-7.42-5.438-12.858t-12.858-5.438h-88.14zM490.133 6.284v171.733h104.672v-38.122h-66.805v-32h45.472v-37.612h-45.472v-64h-37.867zM672.533 6.284v133.612h-44.197v38.122h126.261v-38.122h-44.197v-133.612h-37.867zM327.327 43.895h51.804v32h-51.804v-32zM213.333 230.678l-132.081 132.081 132.081 132.081 40.395-40.395-58.157-58.156h633.113l-58.412 58.156 40.395 40.395 132.081-132.081-132.081-132.081-40.395 40.394 58.412 58.157h-633.113l58.157-58.157-40.395-40.394zM80.997 548.313v18.459q0 23.52 12.917 43.504 12.919 19.983 35.5 29.91 27.005 11.478 55.808 17.6t60.179 6.122q31.375 0 60.132-6.122t55.718-17.6q22.58-9.927 35.499-29.91 12.918-19.984 12.918-43.504v-18.459h-328.672zM614.331 548.313v18.459q0 23.52 12.918 43.504 12.918 19.983 35.499 29.91 27.005 11.478 55.808 17.6t60.179 6.122 60.132-6.122 55.718-17.6q22.58-9.927 35.499-29.91 12.918-19.984 12.918-43.504v-18.459h-328.672zM245.286 721.299q-34.684 0-59.487 24.821-24.802 24.822-24.802 59.467 0 34.9 24.849 59.642 24.85 24.742 59.534 24.742t59.487-24.748q24.802-24.747 24.802-59.722 0-34.719-24.849-59.461-24.85-24.741-59.534-24.741zM778.62 721.299q-34.684 0-59.487 24.821t-24.802 59.467q0 34.9 24.849 59.642t59.534 24.742 59.487-24.748 24.802-59.722q0-34.719-24.849-59.461t-59.534-24.741z" />
<glyph unicode="&#xe933;" glyph-name="ft_apart" d="M309.031 6.284q-7.42 0-12.858 5.438t-5.438 12.858v135.142q0 7.165 5.438 12.731t12.858 5.565h106.435v-38.122h-88.14v-32h69.844q7.42 0 12.858-5.438t5.438-12.858v-65.021q0-7.42-5.438-12.858t-12.858-5.438h-88.14zM490.133 6.284v171.733h104.672v-38.122h-66.805v-32h45.472v-37.612h-45.472v-64h-37.867zM672.533 6.284v133.612h-44.197v38.122h126.261v-38.122h-44.197v-133.612h-37.867zM327.327 43.895h51.804v32h-51.804v-32zM213.333 230.678l-132.081 132.081 132.081 132.081 40.395-40.395-58.157-58.156h633.113l-58.412 58.156 40.395 40.395 132.081-132.081-132.081-132.081-40.395 40.394 58.412 58.157h-633.113l58.157-58.157-40.395-40.394zM80.997 548.313v18.459q0 23.52 12.917 43.504 12.919 19.983 35.5 29.91 27.005 11.478 55.808 17.6t60.179 6.122q31.375 0 60.132-6.122t55.718-17.6q22.58-9.927 35.499-29.91 12.918-19.984 12.918-43.504v-18.459h-328.672zM614.331 548.313v18.459q0 23.52 12.918 43.504 12.918 19.983 35.499 29.91 27.005 11.478 55.808 17.6t60.179 6.122 60.132-6.122 55.718-17.6q22.58-9.927 35.499-29.91 12.918-19.984 12.918-43.504v-18.459h-328.672zM245.286 721.299q-34.684 0-59.487 24.821-24.802 24.822-24.802 59.467 0 34.9 24.849 59.642 24.85 24.742 59.534 24.742t59.487-24.748q24.802-24.747 24.802-59.722 0-34.719-24.849-59.461-24.85-24.741-59.534-24.741zM778.62 721.299q-34.684 0-59.487 24.821t-24.802 59.467q0 34.9 24.849 59.642t59.534 24.742 59.487-24.748 24.802-59.722q0-34.719-24.849-59.461t-59.534-24.741z" />
<glyph unicode="&#xe934;" glyph-name="k_plus-fill5" d="M285.519 320h106.667q14.933 0 25.6 10.133t10.667 25.067v74.667q0 14.933-10.667 25.067t-25.6 10.133h-88.533v57.6h124.8v53.333h-142.933q-15.188 0-25.195-10.667-10.005-10.667-10.005-25.6v-184.533q0-14.933 10.005-25.067t25.195-10.133zM303.652 355.2v74.667h71.467v-74.667h-71.467zM498.342 320h53.333v96l89.6-96h70.4l-119.467 128 119.467 128h-70.4l-89.6-96v96h-53.333v-256zM722.087 362.667h42.667v67.2h64.95v35.2h-64.95v68.267h-42.667v-68.267h-67.2v-35.2h67.2v-67.2zM194.295 57.623q-29.439 0-51.056 21.616-21.616 21.617-21.616 51.056v635.409q0 29.543 21.616 51.235 21.617 21.693 51.056 21.693h635.409q29.543 0 51.235-21.693t21.693-51.235v-635.409q0-29.439-21.693-51.056-21.692-21.616-51.235-21.616h-635.409z" />
<glyph unicode="&#xe935;" glyph-name="k_plus5" d="M285.519 320h106.667q15.413 0 25.84 10.119 10.427 10.121 10.427 25.081v74.667q0 14.96-10.427 25.081-10.427 10.119-25.84 10.119h-88.533v57.6h124.8v53.333h-142.933q-15.215 0-25.207-10.427t-9.993-25.84v-184.533q0-14.96 9.993-25.081 9.993-10.119 25.207-10.119zM303.652 355.2v74.667h71.467v-74.667h-71.467zM498.342 320h53.333v96l89.49-96h69.999l-118.956 128 118.956 128h-69.999l-89.49-96v96h-53.333v-256zM722.087 362.667h42.667v67.2h64.95v35.2h-64.95v68.267h-42.667v-68.267h-67.2v-35.2h67.2v-67.2zM194.295 57.623q-29.439 0-51.056 21.616-21.616 21.617-21.616 51.056v635.409q0 29.543 21.616 51.235 21.617 21.693 51.056 21.693h635.409q29.543 0 51.235-21.693t21.693-51.235v-635.409q0-29.439-21.693-51.056-21.692-21.616-51.235-21.616h-635.409zM194.295 130.295h635.409v635.409h-635.409v-635.409zM194.295 765.705v0z" />
<glyph unicode="&#xe936;" glyph-name="k-fill5" d="M554.667 320h53.333v96l89.6-96h70.4l-119.467 128 119.467 128h-70.4l-89.6-96v96h-53.333v-256zM310.864 320h109.867q14.933 0 25.067 10.133t10.133 25.067v74.667q0 14.933-10.133 25.067t-25.067 10.133h-92.8v57.6h128v53.333h-145.067q-14.933 0-25.6-10.667t-10.667-25.6v-184.533q0-14.933 10.667-25.067t25.6-10.133zM327.931 355.2v74.667h74.667v-74.667h-74.667zM194.295 57.623q-29.439 0-51.056 21.616-21.616 21.617-21.616 51.056v635.409q0 29.543 21.616 51.235 21.617 21.693 51.056 21.693h635.409q29.543 0 51.235-21.693t21.693-51.235v-635.409q0-29.439-21.693-51.056-21.692-21.616-51.235-21.616h-635.409z" />
<glyph unicode="&#xe937;" glyph-name="k5" d="M554.667 320h53.333v96l89.546-96h70.199l-119.212 128 119.212 128h-70.199l-89.546-96v96h-53.333v-256zM310.864 320h109.867q14.96 0 25.079 10.119 10.121 10.121 10.121 25.081v74.667q0 14.96-10.121 25.081-10.119 10.119-25.079 10.119h-92.8v57.6h128v53.333h-145.297q-14.703 0-25.37-10.427t-10.667-25.84v-184.533q0-14.96 10.427-25.081 10.427-10.119 25.84-10.119zM327.931 355.2v74.667h74.667v-74.667h-74.667zM194.295 57.623q-29.439 0-51.056 21.616-21.616 21.617-21.616 51.056v635.409q0 29.543 21.616 51.235 21.617 21.693 51.056 21.693h635.409q29.543 0 51.235-21.693t21.693-51.235v-635.409q0-29.439-21.693-51.056-21.692-21.616-51.235-21.616h-635.409zM194.295 130.295h635.409v635.409h-635.409v-635.409zM194.295 765.705v0z" />
<glyph unicode="&#xe938;" glyph-name="mp-fill4" d="M440.533 477.705h96q14.933 0 28.8 13.867t13.867 28.8v59.733q0 14.933-13.867 28.8t-28.8 13.867h-85.333v57.6h128v53.333h-138.667q-14.933 0-28.8-13.867t-13.867-28.8v-170.667q0-14.933 13.867-28.8t28.8-13.867zM451.2 512.905v74.667h74.667v-74.667h-74.667zM248.533 162.295h53.333v200.371h56.533v-134.446h53.333v134.446h64v-200.371h53.333v211.038q0 14.933-13.867 28.8t-28.8 13.867h-195.2q-14.933 0-28.8-13.867t-13.867-28.8v-211.038zM593.067 162.295h53.333v66.18h85.333q14.933 0 28.8 13.739t13.867 28.928v102.118q0 14.964-13.867 28.851-13.867 13.888-28.8 13.888h-138.667v-253.705zM646.4 281.809v80.858h74.667v-80.858h-74.667zM194.295 57.623q-29.439 0-51.056 21.616-21.616 21.617-21.616 51.056v635.409q0 29.543 21.616 51.235 21.617 21.693 51.056 21.693h635.409q29.543 0 51.235-21.693t21.693-51.235v-635.409q0-29.439-21.693-51.056-21.692-21.616-51.235-21.616h-635.409z" />
<glyph unicode="&#xe939;" glyph-name="mp4" d="M440.533 477.705h96q14.933 0 28.8 13.867t13.867 28.8v59.733q0 14.933-13.867 28.8t-28.8 13.867h-85.333v57.6h128v53.333h-138.667q-14.933 0-28.8-13.867t-13.867-28.8v-170.667q0-14.933 13.867-28.8t28.8-13.867zM451.2 512.905v74.667h74.667v-74.667h-74.667zM248.533 162.295h53.333v200.371h56.533v-134.446h53.333v134.446h64v-200.371h53.333v211.038q0 14.933-13.867 28.8t-28.8 13.867h-195.2q-14.933 0-28.8-13.867t-13.867-28.8v-211.038zM593.067 162.295h53.333v66.18h85.333q14.933 0 28.8 13.739t13.867 28.928v102.118q0 14.964-13.867 28.851-13.867 13.888-28.8 13.888h-138.667v-253.705zM646.4 281.809v80.858h74.667v-80.858h-74.667zM194.295 57.623q-29.439 0-51.056 21.616-21.616 21.617-21.616 51.056v635.409q0 29.543 21.616 51.235 21.617 21.693 51.056 21.693h635.409q29.543 0 51.235-21.693t21.693-51.235v-635.409q0-29.439-21.693-51.056-21.692-21.616-51.235-21.616h-635.409zM194.295 130.295h635.409v635.409h-635.409v-635.409zM194.295 765.705v0z" />
<glyph unicode="&#xe93a;" glyph-name="k_plus-fill6" d="M292.986 320h61.867l69.333 204.8q6.4 19.2-7.467 35.2t-33.067 16h-146.133v-53.333h124.8l-69.333-202.667zM498.342 320h53.333v96l89.6-96h70.4l-119.467 128 119.467 128h-70.4l-89.6-96v96h-53.333v-256zM722.087 362.667h42.667v67.2h64.95v35.2h-64.95v68.267h-42.667v-68.267h-67.2v-35.2h67.2v-67.2zM194.295 57.623q-29.439 0-51.056 21.616-21.616 21.617-21.616 51.056v635.409q0 29.543 21.616 51.235 21.617 21.693 51.056 21.693h635.409q29.543 0 51.235-21.693t21.693-51.235v-635.409q0-29.439-21.693-51.056-21.692-21.616-51.235-21.616h-635.409z" />
<glyph unicode="&#xe93b;" glyph-name="k_plus6" d="M292.986 320h61.867l69.333 204.8q6.4 19.693-7.467 35.446t-33.067 15.754h-146.133v-53.333h124.8l-69.333-202.667zM498.342 320h53.333v96l89.49-96h69.999l-118.956 128 118.956 128h-69.999l-89.49-96v96h-53.333v-256zM722.087 362.667h42.667v67.2h64.95v35.2h-64.95v68.267h-42.667v-68.267h-67.2v-35.2h67.2v-67.2zM194.295 57.623q-29.439 0-51.056 21.616-21.616 21.617-21.616 51.056v635.409q0 29.543 21.616 51.235 21.617 21.693 51.056 21.693h635.409q29.543 0 51.235-21.693t21.693-51.235v-635.409q0-29.439-21.693-51.056-21.692-21.616-51.235-21.616h-635.409zM194.295 130.295h635.409v635.409h-635.409v-635.409zM194.295 765.705v0z" />
<glyph unicode="&#xe93c;" glyph-name="k-fill6" d="M554.667 320h53.333v96l89.6-96h70.4l-119.467 128 119.467 128h-70.4l-89.6-96v96h-53.333v-256zM330.064 320h61.867l69.333 204.8q6.4 19.2-7.467 35.2t-33.067 16h-146.133v-53.333h124.8l-69.333-202.667zM194.295 57.623q-29.439 0-51.056 21.616-21.616 21.617-21.616 51.056v635.409q0 29.543 21.616 51.235 21.617 21.693 51.056 21.693h635.409q29.543 0 51.235-21.693t21.693-51.235v-635.409q0-29.439-21.693-51.056-21.692-21.616-51.235-21.616h-635.409z" />
<glyph unicode="&#xe93d;" glyph-name="k6" d="M554.667 320h53.333v96l89.546-96h70.199l-119.212 128 119.212 128h-70.199l-89.546-96v96h-53.333v-256zM330.064 320h61.867l69.333 204.8q6.4 19.693-7.467 35.446t-33.067 15.754h-146.133v-53.333h124.8l-69.333-202.667zM194.295 57.623q-29.439 0-51.056 21.616-21.616 21.617-21.616 51.056v635.409q0 29.543 21.616 51.235 21.617 21.693 51.056 21.693h635.409q29.543 0 51.235-21.693t21.693-51.235v-635.409q0-29.439-21.693-51.056-21.692-21.616-51.235-21.616h-635.409zM194.295 130.295h635.409v635.409h-635.409v-635.409zM194.295 765.705v0z" />
<glyph unicode="&#xe93e;" glyph-name="mp-fill5" d="M459.733 477.705h58.667l65.067 204.8q8.533 19.2-6.4 35.2t-33.067 16h-146.133v-53.333h122.667l-60.8-202.667zM248.533 162.295h53.333v200.371h56.533v-134.446h53.333v134.446h64v-200.371h53.333v211.038q0 14.933-13.867 28.8t-28.8 13.867h-195.2q-14.933 0-28.8-13.867t-13.867-28.8v-211.038zM593.067 162.295h53.333v66.18h85.333q14.933 0 28.8 13.739t13.867 28.928v102.118q0 14.964-13.867 28.851-13.867 13.888-28.8 13.888h-138.667v-253.705zM646.4 281.809v80.858h74.667v-80.858h-74.667zM194.295 57.623q-29.439 0-51.056 21.616-21.616 21.617-21.616 51.056v635.409q0 29.543 21.616 51.235 21.617 21.693 51.056 21.693h635.409q29.543 0 51.235-21.693t21.693-51.235v-635.409q0-29.439-21.693-51.056-21.692-21.616-51.235-21.616h-635.409z" />
<glyph unicode="&#xe93f;" glyph-name="mp5" d="M459.733 477.705h58.667l65.067 204.8q8.533 19.2-6.4 35.2t-33.067 16h-146.133v-53.333h122.667l-60.8-202.667zM248.533 162.295h53.333v200.371h56.533v-134.446h53.333v134.446h64v-200.371h53.333v211.038q0 14.933-13.867 28.8t-28.8 13.867h-195.2q-14.933 0-28.8-13.867t-13.867-28.8v-211.038zM593.067 162.295h53.333v66.18h85.333q14.933 0 28.8 13.739t13.867 28.928v102.118q0 14.964-13.867 28.851-13.867 13.888-28.8 13.888h-138.667v-253.705zM646.4 281.809v80.858h74.667v-80.858h-74.667zM194.295 57.623q-29.439 0-51.056 21.616-21.616 21.617-21.616 51.056v635.409q0 29.543 21.616 51.235 21.617 21.693 51.056 21.693h635.409q29.543 0 51.235-21.693t21.693-51.235v-635.409q0-29.439-21.693-51.056-21.692-21.616-51.235-21.616h-635.409zM194.295 130.295h635.409v635.409h-635.409v-635.409zM194.295 765.705v0z" />
<glyph unicode="&#xe940;" glyph-name="k_plus-fill7" d="M286.586 320h109.867q14.933 0 25.067 10.133t10.133 25.067v184.533q0 14.933-10.133 25.6t-25.067 10.667h-109.867q-15.188 0-25.728-10.667-10.539-10.667-10.539-25.6v-184.533q0-14.933 10.539-25.067 10.54-10.133 25.728-10.133zM303.652 355.2v74.667h74.667v-74.667h-74.667zM303.652 465.067v75.733h74.667v-75.733h-74.667zM498.342 320h53.333v96l89.6-96h70.4l-119.467 128 119.467 128h-70.4l-89.6-96v96h-53.333v-256zM722.087 362.667h42.667v67.2h64.95v35.2h-64.95v68.267h-42.667v-68.267h-67.2v-35.2h67.2v-67.2zM194.295 57.623q-29.439 0-51.056 21.616-21.616 21.617-21.616 51.056v635.409q0 29.543 21.616 51.235 21.617 21.693 51.056 21.693h635.409q29.543 0 51.235-21.693t21.693-51.235v-635.409q0-29.439-21.693-51.056-21.692-21.616-51.235-21.616h-635.409z" />
<glyph unicode="&#xe941;" glyph-name="k_plus7" d="M286.586 320h109.867q14.96 0 25.079 10.119 10.121 10.121 10.121 25.081v184.533q0 15.413-10.121 25.84-10.119 10.427-25.079 10.427h-109.867q-15.668 0-25.968-10.427-10.299-10.427-10.299-25.84v-184.533q0-14.96 10.299-25.081 10.3-10.119 25.968-10.119zM303.652 355.2v74.667h74.667v-74.667h-74.667zM303.652 465.067v75.733h74.667v-75.733h-74.667zM498.342 320h53.333v96l89.49-96h69.999l-118.956 128 118.956 128h-69.999l-89.49-96v96h-53.333v-256zM722.087 362.667h42.667v67.2h64.95v35.2h-64.95v68.267h-42.667v-68.267h-67.2v-35.2h67.2v-67.2zM194.295 57.623q-29.439 0-51.056 21.616-21.616 21.617-21.616 51.056v635.409q0 29.543 21.616 51.235 21.617 21.693 51.056 21.693h635.409q29.543 0 51.235-21.693t21.693-51.235v-635.409q0-29.439-21.693-51.056-21.692-21.616-51.235-21.616h-635.409zM194.295 130.295h635.409v635.409h-635.409v-635.409zM194.295 765.705v0z" />
<glyph unicode="&#xe942;" glyph-name="k-fill7" d="M554.667 320h53.333v96l89.6-96h70.4l-119.467 128 119.467 128h-70.4l-89.6-96v96h-53.333v-256zM311.119 320h109.867q14.933 0 25.067 10.133t10.133 25.067v184.533q0 14.933-10.133 25.6t-25.067 10.667h-109.867q-15.188 0-25.728-10.667-10.539-10.667-10.539-25.6v-184.533q0-14.933 10.539-25.067 10.54-10.133 25.728-10.133zM328.186 465.067v75.733h74.667v-75.733h-74.667zM328.186 355.2v74.667h74.667v-74.667h-74.667zM194.295 57.623q-29.439 0-51.056 21.616-21.616 21.617-21.616 51.056v635.409q0 29.543 21.616 51.235 21.617 21.693 51.056 21.693h635.409q29.543 0 51.235-21.693t21.693-51.235v-635.409q0-29.439-21.693-51.056-21.692-21.616-51.235-21.616h-635.409z" />
<glyph unicode="&#xe943;" glyph-name="k7" d="M554.667 320h53.333v96l89.546-96h70.199l-119.212 128 119.212 128h-70.199l-89.546-96v96h-53.333v-256zM311.119 320h109.867q14.96 0 25.079 10.119 10.121 10.121 10.121 25.081v184.533q0 15.413-10.121 25.84-10.119 10.427-25.079 10.427h-109.867q-15.668 0-25.968-10.427-10.299-10.427-10.299-25.84v-184.533q0-14.96 10.299-25.081 10.3-10.119 25.968-10.119zM328.186 465.067v75.733h74.667v-75.733h-74.667zM328.186 355.2v74.667h74.667v-74.667h-74.667zM194.295 57.623q-29.439 0-51.056 21.616-21.616 21.617-21.616 51.056v635.409q0 29.543 21.616 51.235 21.617 21.693 51.056 21.693h635.409q29.543 0 51.235-21.693t21.693-51.235v-635.409q0-29.439-21.693-51.056-21.692-21.616-51.235-21.616h-635.409zM194.295 130.295h635.409v635.409h-635.409v-635.409zM194.295 765.705v0z" />
<glyph unicode="&#xe944;" glyph-name="mp-fill6" d="M440.533 477.705h96q14.933 0 28.8 13.867t13.867 28.8v170.667q0 14.933-13.867 28.8t-28.8 13.867h-96q-14.933 0-28.8-13.867t-13.867-28.8v-170.667q0-14.933 13.867-28.8t28.8-13.867zM451.2 622.771v68.267h74.667v-68.267h-74.667zM451.2 512.905v74.667h74.667v-74.667h-74.667zM248.533 162.295h53.333v200.371h56.533v-134.446h53.333v134.446h64v-200.371h53.333v211.038q0 14.933-13.867 28.8t-28.8 13.867h-195.2q-14.933 0-28.8-13.867t-13.867-28.8v-211.038zM593.067 162.295h53.333v66.18h85.333q14.933 0 28.8 13.739t13.867 28.928v102.118q0 14.964-13.867 28.851-13.867 13.888-28.8 13.888h-138.667v-253.705zM646.4 281.809v80.858h74.667v-80.858h-74.667zM194.295 57.623q-29.439 0-51.056 21.616-21.616 21.617-21.616 51.056v635.409q0 29.543 21.616 51.235 21.617 21.693 51.056 21.693h635.409q29.543 0 51.235-21.693t21.693-51.235v-635.409q0-29.439-21.693-51.056-21.692-21.616-51.235-21.616h-635.409z" />
<glyph unicode="&#xe945;" glyph-name="mp6" d="M440.533 477.705h96q14.933 0 28.8 13.867t13.867 28.8v170.667q0 14.933-13.867 28.8t-28.8 13.867h-96q-14.933 0-28.8-13.867t-13.867-28.8v-170.667q0-14.933 13.867-28.8t28.8-13.867zM451.2 622.771v68.267h74.667v-68.267h-74.667zM451.2 512.905v74.667h74.667v-74.667h-74.667zM248.533 162.295h53.333v200.371h56.533v-134.446h53.333v134.446h64v-200.371h53.333v211.038q0 14.933-13.867 28.8t-28.8 13.867h-195.2q-14.933 0-28.8-13.867t-13.867-28.8v-211.038zM593.067 162.295h53.333v66.18h85.333q14.933 0 28.8 13.739t13.867 28.928v102.118q0 14.964-13.867 28.851-13.867 13.888-28.8 13.888h-138.667v-253.705zM646.4 281.809v80.858h74.667v-80.858h-74.667zM194.295 57.623q-29.439 0-51.056 21.616-21.616 21.617-21.616 51.056v635.409q0 29.543 21.616 51.235 21.617 21.693 51.056 21.693h635.409q29.543 0 51.235-21.693t21.693-51.235v-635.409q0-29.439-21.693-51.056-21.692-21.616-51.235-21.616h-635.409zM194.295 130.295h635.409v635.409h-635.409v-635.409zM194.295 765.705v0z" />
<glyph unicode="&#xe946;" glyph-name="k_plus-fill8" d="M250.319 320h146.133q14.933 0 25.067 10.133t10.133 25.067v184.533q0 14.933-10.133 25.6t-25.067 10.667h-110.933q-15.188 0-25.195-10.667-10.005-10.667-10.005-25.6v-74.667q0-14.933 10.005-25.067 10.006-10.133 25.195-10.133h92.8v-56.533h-128v-53.333zM303.652 465.067v74.667h74.667v-74.667h-74.667zM498.342 320h53.333v96l89.6-96h70.4l-119.467 128 119.467 128h-70.4l-89.6-96v96h-53.333v-256zM722.087 362.667h42.667v67.2h64.95v35.2h-64.95v68.267h-42.667v-68.267h-67.2v-35.2h67.2v-67.2zM194.295 57.623q-29.439 0-51.056 21.616-21.616 21.617-21.616 51.056v635.409q0 29.543 21.616 51.235 21.617 21.693 51.056 21.693h635.409q29.543 0 51.235-21.693t21.693-51.235v-635.409q0-29.439-21.693-51.056-21.692-21.616-51.235-21.616h-635.409z" />
<glyph unicode="&#xe947;" glyph-name="k_plus8" d="M250.319 320h145.874q15.193 0 25.326 10.119 10.133 10.121 10.133 25.081v184.533q0 15.413-10.121 25.84-10.119 10.427-25.079 10.427h-110.933q-15.215 0-25.207-10.427t-9.993-25.84v-74.667q0-14.96 9.993-25.081 9.993-10.119 25.207-10.119h92.8v-56.533h-128v-53.333zM303.652 465.067v75.733h74.667v-75.733h-74.667zM498.342 320h53.333v96l89.49-96h69.999l-118.956 128 118.956 128h-69.999l-89.49-96v96h-53.333v-256zM722.087 362.667h42.667v67.2h64.95v35.2h-64.95v68.267h-42.667v-68.267h-67.2v-35.2h67.2v-67.2zM194.295 57.623q-29.439 0-51.056 21.616-21.616 21.617-21.616 51.056v635.409q0 29.543 21.616 51.235 21.617 21.693 51.056 21.693h635.409q29.543 0 51.235-21.693t21.693-51.235v-635.409q0-29.439-21.693-51.056-21.692-21.616-51.235-21.616h-635.409zM194.295 130.295h635.409v635.409h-635.409v-635.409zM194.295 765.705v0z" />
<glyph unicode="&#xe948;" glyph-name="k-fill8" d="M282.064 320h146.133q14.933 0 25.067 10.133t10.133 25.067v184.533q0 14.933-10.133 25.6t-25.067 10.667h-110.933q-14.933 0-25.067-10.667t-10.133-25.6v-74.667q0-14.933 10.133-25.067t25.067-10.133h92.8v-56.533h-128v-53.333zM335.397 465.067v74.667h74.667v-74.667h-74.667zM554.667 320h53.333v96l89.6-96h70.4l-119.467 128 119.467 128h-70.4l-89.6-96v96h-53.333v-256zM194.295 57.623q-29.439 0-51.056 21.616-21.616 21.617-21.616 51.056v635.409q0 29.543 21.616 51.235 21.617 21.693 51.056 21.693h635.409q29.543 0 51.235-21.693t21.693-51.235v-635.409q0-29.439-21.693-51.056-21.692-21.616-51.235-21.616h-635.409z" />
<glyph unicode="&#xe949;" glyph-name="k8" d="M282.064 320h145.874q15.193 0 25.326 10.119 10.133 10.121 10.133 25.081v184.533q0 15.413-10.121 25.84-10.119 10.427-25.079 10.427h-110.933q-14.96 0-25.081-10.427-10.119-10.427-10.119-25.84v-74.667q0-14.96 10.119-25.081 10.121-10.119 25.081-10.119h92.8v-56.533h-128v-53.333zM335.397 465.067v75.733h74.667v-75.733h-74.667zM554.667 320h53.333v96l89.546-96h70.199l-119.212 128 119.212 128h-70.199l-89.546-96v96h-53.333v-256zM194.295 57.623q-29.439 0-51.056 21.616-21.616 21.617-21.616 51.056v635.409q0 29.543 21.616 51.235 21.617 21.693 51.056 21.693h635.409q29.543 0 51.235-21.693t21.693-51.235v-635.409q0-29.439-21.693-51.056-21.692-21.616-51.235-21.616h-635.409zM194.295 130.295h635.409v635.409h-635.409v-635.409zM194.295 765.705v0z" />
<glyph unicode="&#xe94a;" glyph-name="mp-fill7" d="M397.867 477.705h138.667q14.933 0 28.8 13.867t13.867 28.8v170.667q0 14.933-13.867 28.8t-28.8 13.867h-96q-14.933 0-28.8-13.867t-13.867-28.8v-60.8q0-14.933 13.867-28.8t28.8-13.867h85.333v-56.533h-128v-53.333zM451.2 622.771v68.267h74.667v-68.267h-74.667zM248.533 162.295h53.333v200.371h56.533v-134.446h53.333v134.446h64v-200.371h53.333v211.038q0 14.933-13.867 28.8t-28.8 13.867h-195.2q-14.933 0-28.8-13.867t-13.867-28.8v-211.038zM593.067 162.295h53.333v66.18h85.333q14.933 0 28.8 13.739t13.867 28.928v102.118q0 14.964-13.867 28.851-13.867 13.888-28.8 13.888h-138.667v-253.705zM646.4 281.809v80.858h74.667v-80.858h-74.667zM194.295 57.623q-29.439 0-51.056 21.616-21.616 21.617-21.616 51.056v635.409q0 29.543 21.616 51.235 21.617 21.693 51.056 21.693h635.409q29.543 0 51.235-21.693t21.693-51.235v-635.409q0-29.439-21.693-51.056-21.692-21.616-51.235-21.616h-635.409z" />
<glyph unicode="&#xe94b;" glyph-name="mp7" d="M397.867 477.705h138.667q14.933 0 28.8 13.867t13.867 28.8v170.667q0 14.933-13.867 28.8t-28.8 13.867h-96q-14.933 0-28.8-13.867t-13.867-28.8v-60.8q0-14.933 13.867-28.8t28.8-13.867h85.333v-56.533h-128v-53.333zM451.2 622.771v68.267h74.667v-68.267h-74.667zM248.533 162.295h53.333v200.371h56.533v-134.446h53.333v134.446h64v-200.371h53.333v211.038q0 14.933-13.867 28.8t-28.8 13.867h-195.2q-14.933 0-28.8-13.867t-13.867-28.8v-211.038zM593.067 162.295h53.333v66.18h85.333q14.933 0 28.8 13.739t13.867 28.928v102.118q0 14.964-13.867 28.851-13.867 13.888-28.8 13.888h-138.667v-253.705zM646.4 281.809v80.858h74.667v-80.858h-74.667zM194.295 57.623q-29.439 0-51.056 21.616-21.616 21.617-21.616 51.056v635.409q0 29.543 21.616 51.235 21.617 21.693 51.056 21.693h635.409q29.543 0 51.235-21.693t21.693-51.235v-635.409q0-29.439-21.693-51.056-21.692-21.616-51.235-21.616h-635.409zM194.295 130.295h635.409v635.409h-635.409v-635.409zM194.295 765.705v0z" />
<glyph unicode="&#xe94c;" glyph-name="k-fill9" d="M306.342 320h53.333v256h-165.38v-53.333h112.047v-202.667zM433.067 320h110.933q14.933 0 25.067 10.133t10.133 25.067v184.533q0 14.933-10.133 25.6t-25.067 10.667h-110.933q-14.933 0-25.067-10.667t-10.133-25.6v-184.533q0-14.933 10.133-25.067t25.067-10.133zM451.2 373.333v149.333h74.667v-149.333h-74.667zM616.371 320h53.333v96l89.6-96h70.4l-119.467 128 119.467 128h-70.4l-89.6-96v96h-53.333v-256zM194.295 57.623q-29.439 0-51.056 21.616-21.616 21.617-21.616 51.056v635.409q0 29.543 21.616 51.235 21.617 21.693 51.056 21.693h635.409q29.543 0 51.235-21.693t21.693-51.235v-635.409q0-29.439-21.693-51.056-21.692-21.616-51.235-21.616h-635.409z" />
<glyph unicode="&#xe94d;" glyph-name="k9" d="M306.342 320h53.333v256h-165.38v-53.333h112.047v-202.667zM433.067 320h110.933q14.96 0 25.081 10.119 10.119 10.121 10.119 25.081v184.533q0 15.413-10.119 25.84-10.121 10.427-25.081 10.427h-110.933q-14.96 0-25.081-10.427-10.119-10.427-10.119-25.84v-184.533q0-14.96 10.119-25.081 10.121-10.119 25.081-10.119zM451.2 373.333v149.333h74.667v-149.333h-74.667zM616.881 320h53.333v96l89.49-96h70l-118.957 128 118.957 128h-70l-89.49-96v96h-53.333v-256zM194.295 57.623q-29.439 0-51.056 21.616-21.616 21.617-21.616 51.056v635.409q0 29.543 21.616 51.235 21.617 21.693 51.056 21.693h635.409q29.543 0 51.235-21.693t21.693-51.235v-635.409q0-29.439-21.693-51.056-21.692-21.616-51.235-21.616h-635.409zM194.295 130.295h635.409v635.409h-635.409v-635.409zM194.295 765.705v0z" />
<glyph unicode="&#xe94e;" glyph-name="mp-fill8" d="M358.4 477.705h53.333v256h-120.533v-53.333h67.2v-202.667zM561.067 477.705h96q14.933 0 28.8 13.867t13.867 28.8v170.667q0 14.933-13.867 28.8t-28.8 13.867h-96q-14.933 0-28.8-13.867t-13.867-28.8v-170.667q0-14.933 13.867-28.8t28.8-13.867zM571.733 531.038v149.333h74.667v-149.333h-74.667zM248.533 162.295h53.333v200.371h56.533v-134.446h53.333v134.446h64v-200.371h53.333v211.038q0 14.933-13.867 28.8t-28.8 13.867h-195.2q-14.933 0-28.8-13.867t-13.867-28.8v-211.038zM593.067 162.295h53.333v66.18h85.333q14.933 0 28.8 13.739t13.867 28.928v102.118q0 14.964-13.867 28.851-13.867 13.888-28.8 13.888h-138.667v-253.705zM646.4 281.809v80.858h74.667v-80.858h-74.667zM194.295 57.623q-29.439 0-51.056 21.616-21.616 21.617-21.616 51.056v635.409q0 29.543 21.616 51.235 21.617 21.693 51.056 21.693h635.409q29.543 0 51.235-21.693t21.693-51.235v-635.409q0-29.439-21.693-51.056-21.692-21.616-51.235-21.616h-635.409z" />
<glyph unicode="&#xe94f;" glyph-name="mp8" d="M358.4 477.705h53.333v256h-120.533v-53.333h67.2v-202.667zM561.067 477.705h96q14.933 0 28.8 13.867t13.867 28.8v170.667q0 14.933-13.867 28.8t-28.8 13.867h-96q-14.933 0-28.8-13.867t-13.867-28.8v-170.667q0-14.933 13.867-28.8t28.8-13.867zM571.733 531.038v149.333h74.667v-149.333h-74.667zM248.533 162.295h53.333v200.371h56.533v-134.446h53.333v134.446h64v-200.371h53.333v211.038q0 14.933-13.867 28.8t-28.8 13.867h-195.2q-14.933 0-28.8-13.867t-13.867-28.8v-211.038zM593.067 162.295h53.333v66.18h85.333q14.933 0 28.8 13.739t13.867 28.928v102.118q0 14.964-13.867 28.851-13.867 13.888-28.8 13.888h-138.667v-253.705zM646.4 281.809v80.858h74.667v-80.858h-74.667zM194.295 57.623q-29.439 0-51.056 21.616-21.616 21.617-21.616 51.056v635.409q0 29.543 21.616 51.235 21.617 21.693 51.056 21.693h635.409q29.543 0 51.235-21.693t21.693-51.235v-635.409q0-29.439-21.693-51.056-21.692-21.616-51.235-21.616h-635.409zM194.295 130.295h635.409v635.409h-635.409v-635.409zM194.295 765.705v0z" />
<glyph unicode="&#xe950;" glyph-name="mp-fill9" d="M373.333 477.705h53.333v256h-121.6v-53.333h68.267v-202.667zM600.533 477.705h53.333v256h-120.533v-53.333h67.2v-202.667zM248.533 162.295h53.333v200.371h56.533v-134.446h53.333v134.446h64v-200.371h53.333v211.038q0 14.933-13.867 28.8t-28.8 13.867h-195.2q-14.933 0-28.8-13.867t-13.867-28.8v-211.038zM593.067 162.295h53.333v66.18h85.333q14.933 0 28.8 13.739t13.867 28.928v102.118q0 14.964-13.867 28.851-13.867 13.888-28.8 13.888h-138.667v-253.705zM646.4 281.809v80.858h74.667v-80.858h-74.667zM194.295 57.623q-29.439 0-51.056 21.616-21.616 21.617-21.616 51.056v635.409q0 29.543 21.616 51.235 21.617 21.693 51.056 21.693h635.409q29.543 0 51.235-21.693t21.693-51.235v-635.409q0-29.439-21.693-51.056-21.692-21.616-51.235-21.616h-635.409z" />
<glyph unicode="&#xe951;" glyph-name="mp9" d="M373.333 477.705h53.333v256h-121.6v-53.333h68.267v-202.667zM600.533 477.705h53.333v256h-120.533v-53.333h67.2v-202.667zM248.533 162.295h53.333v200.371h56.533v-134.446h53.333v134.446h64v-200.371h53.333v211.038q0 14.933-13.867 28.8t-28.8 13.867h-195.2q-14.933 0-28.8-13.867t-13.867-28.8v-211.038zM593.067 162.295h53.333v66.18h85.333q14.933 0 28.8 13.739t13.867 28.928v102.118q0 14.964-13.867 28.851-13.867 13.888-28.8 13.888h-138.667v-253.705zM646.4 281.809v80.858h74.667v-80.858h-74.667zM194.295 57.623q-29.439 0-51.056 21.616-21.616 21.617-21.616 51.056v635.409q0 29.543 21.616 51.235 21.617 21.693 51.056 21.693h635.409q29.543 0 51.235-21.693t21.693-51.235v-635.409q0-29.439-21.693-51.056-21.692-21.616-51.235-21.616h-635.409zM194.295 130.295h635.409v635.409h-635.409v-635.409zM194.295 765.705v0z" />
<glyph unicode="&#xe952;" glyph-name="mp-fill10" d="M358.4 477.705h53.333v256h-120.533v-53.333h67.2v-202.667zM518.4 477.705h181.333v53.333h-128v56.533h85.333q14.933 0 28.8 13.867t13.867 28.8v60.8q0 14.933-13.867 28.8t-28.8 13.867h-138.667v-53.333h128v-57.6h-85.333q-14.933 0-28.8-13.867t-13.867-28.8v-102.4zM248.533 162.295h53.333v200.371h56.533v-134.446h53.333v134.446h64v-200.371h53.333v211.038q0 14.933-13.867 28.8t-28.8 13.867h-195.2q-14.933 0-28.8-13.867t-13.867-28.8v-211.038zM593.067 162.295h53.333v66.18h85.333q14.933 0 28.8 13.739t13.867 28.928v102.118q0 14.964-13.867 28.851-13.867 13.888-28.8 13.888h-138.667v-253.705zM646.4 281.809v80.858h74.667v-80.858h-74.667zM194.295 57.623q-29.439 0-51.056 21.616-21.616 21.617-21.616 51.056v635.409q0 29.543 21.616 51.235 21.617 21.693 51.056 21.693h635.409q29.543 0 51.235-21.693t21.693-51.235v-635.409q0-29.439-21.693-51.056-21.692-21.616-51.235-21.616h-635.409z" />
<glyph unicode="&#xe953;" glyph-name="mp10" d="M358.4 477.705h53.333v256h-120.533v-53.333h67.2v-202.667zM518.4 477.705h181.333v53.333h-128v56.533h85.333q14.933 0 28.8 13.867t13.867 28.8v60.8q0 14.933-13.867 28.8t-28.8 13.867h-138.667v-53.333h128v-57.6h-85.333q-14.933 0-28.8-13.867t-13.867-28.8v-102.4zM248.533 162.295h53.333v200.371h56.533v-134.446h53.333v134.446h64v-200.371h53.333v211.038q0 14.933-13.867 28.8t-28.8 13.867h-195.2q-14.933 0-28.8-13.867t-13.867-28.8v-211.038zM593.067 162.295h53.333v66.18h85.333q14.933 0 28.8 13.739t13.867 28.928v102.118q0 14.964-13.867 28.851-13.867 13.888-28.8 13.888h-138.667v-253.705zM646.4 281.809v80.858h74.667v-80.858h-74.667zM194.295 57.623q-29.439 0-51.056 21.616-21.616 21.617-21.616 51.056v635.409q0 29.543 21.616 51.235 21.617 21.693 51.056 21.693h635.409q29.543 0 51.235-21.693t21.693-51.235v-635.409q0-29.439-21.693-51.056-21.692-21.616-51.235-21.616h-635.409zM194.295 130.295h635.409v635.409h-635.409v-635.409zM194.295 765.705v0z" />
<glyph unicode="&#xe954;" glyph-name="mp-fill11" d="M358.4 477.705h53.333v256h-120.533v-53.333h67.2v-202.667zM512 477.705h138.667q14.933 0 28.8 13.867t13.867 28.8v170.667q0 14.933-13.867 28.8t-28.8 13.867h-138.667v-53.333h128v-57.6h-85.333v-35.2h85.333v-56.533h-128v-53.333zM248.533 162.295h53.333v200.371h56.533v-134.446h53.333v134.446h64v-200.371h53.333v211.038q0 14.933-13.867 28.8t-28.8 13.867h-195.2q-14.933 0-28.8-13.867t-13.867-28.8v-211.038zM593.067 162.295h53.333v66.18h85.333q14.933 0 28.8 13.739t13.867 28.928v102.118q0 14.964-13.867 28.851-13.867 13.888-28.8 13.888h-138.667v-253.705zM646.4 281.809v80.858h74.667v-80.858h-74.667zM194.295 57.623q-29.439 0-51.056 21.616-21.616 21.617-21.616 51.056v635.409q0 29.543 21.616 51.235 21.617 21.693 51.056 21.693h635.409q29.543 0 51.235-21.693t21.693-51.235v-635.409q0-29.439-21.693-51.056-21.692-21.616-51.235-21.616h-635.409z" />
<glyph unicode="&#xe955;" glyph-name="mp11" d="M358.4 477.705h53.333v256h-120.533v-53.333h67.2v-202.667zM512 477.705h138.667q14.933 0 28.8 13.867t13.867 28.8v170.667q0 14.933-13.867 28.8t-28.8 13.867h-138.667v-53.333h128v-57.6h-85.333v-35.2h85.333v-56.533h-128v-53.333zM248.533 162.295h53.333v200.371h56.533v-134.446h53.333v134.446h64v-200.371h53.333v211.038q0 14.933-13.867 28.8t-28.8 13.867h-195.2q-14.933 0-28.8-13.867t-13.867-28.8v-211.038zM593.067 162.295h53.333v66.18h85.333q14.933 0 28.8 13.739t13.867 28.928v102.118q0 14.964-13.867 28.851-13.867 13.888-28.8 13.888h-138.667v-253.705zM646.4 281.809v80.858h74.667v-80.858h-74.667zM194.295 57.623q-29.439 0-51.056 21.616-21.616 21.617-21.616 51.056v635.409q0 29.543 21.616 51.235 21.617 21.693 51.056 21.693h635.409q29.543 0 51.235-21.693t21.693-51.235v-635.409q0-29.439-21.693-51.056-21.692-21.616-51.235-21.616h-635.409zM194.295 130.295h635.409v635.409h-635.409v-635.409zM194.295 765.705v0z" />
<glyph unicode="&#xe956;" glyph-name="mp-fill12" d="M358.4 477.705h53.333v256h-120.533v-53.333h67.2v-202.667zM614.4 477.705h53.333v67.2h50.133v53.333h-50.133v135.467h-53.333v-135.467h-59.733v135.467h-53.333v-188.8h113.067v-67.2zM248.533 162.295h53.333v200.371h56.533v-134.446h53.333v134.446h64v-200.371h53.333v211.038q0 14.933-13.867 28.8t-28.8 13.867h-195.2q-14.933 0-28.8-13.867t-13.867-28.8v-211.038zM593.067 162.295h53.333v66.18h85.333q14.933 0 28.8 13.739t13.867 28.928v102.118q0 14.964-13.867 28.851-13.867 13.888-28.8 13.888h-138.667v-253.705zM646.4 281.809v80.858h74.667v-80.858h-74.667zM194.295 57.623q-29.439 0-51.056 21.616-21.616 21.617-21.616 51.056v635.409q0 29.543 21.616 51.235 21.617 21.693 51.056 21.693h635.409q29.543 0 51.235-21.693t21.693-51.235v-635.409q0-29.439-21.693-51.056-21.692-21.616-51.235-21.616h-635.409z" />
<glyph unicode="&#xe957;" glyph-name="mp12" d="M358.4 477.705h53.333v256h-120.533v-53.333h67.2v-202.667zM614.4 477.705h53.333v67.2h50.133v53.333h-50.133v135.467h-53.333v-135.467h-59.733v135.467h-53.333v-188.8h113.067v-67.2zM248.533 162.295h53.333v200.371h56.533v-134.446h53.333v134.446h64v-200.371h53.333v211.038q0 14.933-13.867 28.8t-28.8 13.867h-195.2q-14.933 0-28.8-13.867t-13.867-28.8v-211.038zM593.067 162.295h53.333v66.18h85.333q14.933 0 28.8 13.739t13.867 28.928v102.118q0 14.964-13.867 28.851-13.867 13.888-28.8 13.888h-138.667v-253.705zM646.4 281.809v80.858h74.667v-80.858h-74.667zM194.295 57.623q-29.439 0-51.056 21.616-21.616 21.617-21.616 51.056v635.409q0 29.543 21.616 51.235 21.617 21.693 51.056 21.693h635.409q29.543 0 51.235-21.693t21.693-51.235v-635.409q0-29.439-21.693-51.056-21.692-21.616-51.235-21.616h-635.409zM194.295 130.295h635.409v635.409h-635.409v-635.409zM194.295 765.705v0z" />
<glyph unicode="&#xe958;" glyph-name="mp-fill13" d="M358.4 477.705h53.333v256h-120.533v-53.333h67.2v-202.667zM518.4 477.705h138.667q14.933 0 28.8 13.867t13.867 28.8v59.733q0 14.933-13.867 28.8t-28.8 13.867h-85.333v57.6h128v53.333h-181.333v-146.133h128v-56.533h-128v-53.333zM248.533 162.295h53.333v200.371h56.533v-134.446h53.333v134.446h64v-200.371h53.333v211.038q0 14.933-13.867 28.8t-28.8 13.867h-195.2q-14.933 0-28.8-13.867t-13.867-28.8v-211.038zM593.067 162.295h53.333v66.18h85.333q14.933 0 28.8 13.739t13.867 28.928v102.118q0 14.964-13.867 28.851-13.867 13.888-28.8 13.888h-138.667v-253.705zM646.4 281.809v80.858h74.667v-80.858h-74.667zM194.295 57.623q-29.439 0-51.056 21.616-21.616 21.617-21.616 51.056v635.409q0 29.543 21.616 51.235 21.617 21.693 51.056 21.693h635.409q29.543 0 51.235-21.693t21.693-51.235v-635.409q0-29.439-21.693-51.056-21.692-21.616-51.235-21.616h-635.409z" />
<glyph unicode="&#xe959;" glyph-name="mp13" d="M358.4 477.705h53.333v256h-120.533v-53.333h67.2v-202.667zM518.4 477.705h138.667q14.933 0 28.8 13.867t13.867 28.8v59.733q0 14.933-13.867 28.8t-28.8 13.867h-85.333v57.6h128v53.333h-181.333v-146.133h128v-56.533h-128v-53.333zM248.533 162.295h53.333v200.371h56.533v-134.446h53.333v134.446h64v-200.371h53.333v211.038q0 14.933-13.867 28.8t-28.8 13.867h-195.2q-14.933 0-28.8-13.867t-13.867-28.8v-211.038zM593.067 162.295h53.333v66.18h85.333q14.933 0 28.8 13.739t13.867 28.928v102.118q0 14.964-13.867 28.851-13.867 13.888-28.8 13.888h-138.667v-253.705zM646.4 281.809v80.858h74.667v-80.858h-74.667zM194.295 57.623q-29.439 0-51.056 21.616-21.616 21.617-21.616 51.056v635.409q0 29.543 21.616 51.235 21.617 21.693 51.056 21.693h635.409q29.543 0 51.235-21.693t21.693-51.235v-635.409q0-29.439-21.693-51.056-21.692-21.616-51.235-21.616h-635.409zM194.295 130.295h635.409v635.409h-635.409v-635.409zM194.295 765.705v0z" />
<glyph unicode="&#xe95a;" glyph-name="mp-fill14" d="M358.4 477.705h53.333v256h-120.533v-53.333h67.2v-202.667zM561.067 477.705h96q14.933 0 28.8 13.867t13.867 28.8v59.733q0 14.933-13.867 28.8t-28.8 13.867h-85.333v57.6h128v53.333h-138.667q-14.933 0-28.8-13.867t-13.867-28.8v-170.667q0-14.933 13.867-28.8t28.8-13.867zM571.733 512.905v74.667h74.667v-74.667h-74.667zM248.533 162.295h53.333v200.371h56.533v-134.446h53.333v134.446h64v-200.371h53.333v211.038q0 14.933-13.867 28.8t-28.8 13.867h-195.2q-14.933 0-28.8-13.867t-13.867-28.8v-211.038zM593.067 162.295h53.333v66.18h85.333q14.933 0 28.8 13.739t13.867 28.928v102.118q0 14.964-13.867 28.851-13.867 13.888-28.8 13.888h-138.667v-253.705zM646.4 281.809v80.858h74.667v-80.858h-74.667zM194.295 57.623q-29.439 0-51.056 21.616-21.616 21.617-21.616 51.056v635.409q0 29.543 21.616 51.235 21.617 21.693 51.056 21.693h635.409q29.543 0 51.235-21.693t21.693-51.235v-635.409q0-29.439-21.693-51.056-21.692-21.616-51.235-21.616h-635.409z" />
<glyph unicode="&#xe95b;" glyph-name="mp14" d="M358.4 477.705h53.333v256h-120.533v-53.333h67.2v-202.667zM561.067 477.705h96q14.933 0 28.8 13.867t13.867 28.8v59.733q0 14.933-13.867 28.8t-28.8 13.867h-85.333v57.6h128v53.333h-138.667q-14.933 0-28.8-13.867t-13.867-28.8v-170.667q0-14.933 13.867-28.8t28.8-13.867zM571.733 512.905v74.667h74.667v-74.667h-74.667zM248.533 162.295h53.333v200.371h56.533v-134.446h53.333v134.446h64v-200.371h53.333v211.038q0 14.933-13.867 28.8t-28.8 13.867h-195.2q-14.933 0-28.8-13.867t-13.867-28.8v-211.038zM593.067 162.295h53.333v66.18h85.333q14.933 0 28.8 13.739t13.867 28.928v102.118q0 14.964-13.867 28.851-13.867 13.888-28.8 13.888h-138.667v-253.705zM646.4 281.809v80.858h74.667v-80.858h-74.667zM194.295 57.623q-29.439 0-51.056 21.616-21.616 21.617-21.616 51.056v635.409q0 29.543 21.616 51.235 21.617 21.693 51.056 21.693h635.409q29.543 0 51.235-21.693t21.693-51.235v-635.409q0-29.439-21.693-51.056-21.692-21.616-51.235-21.616h-635.409zM194.295 130.295h635.409v635.409h-635.409v-635.409zM194.295 765.705v0z" />
<glyph unicode="&#xe95c;" glyph-name="mp-fill15" d="M358.4 477.705h53.333v256h-120.533v-53.333h67.2v-202.667zM581.333 477.705h58.667l65.067 204.8q7.467 19.2-3.733 35.2t-29.333 16h-153.6v-53.333h122.667l-59.733-202.667zM248.533 162.295h53.333v200.371h56.533v-134.446h53.333v134.446h64v-200.371h53.333v211.038q0 14.933-13.867 28.8t-28.8 13.867h-195.2q-14.933 0-28.8-13.867t-13.867-28.8v-211.038zM593.067 162.295h53.333v66.18h85.333q14.933 0 28.8 13.739t13.867 28.928v102.118q0 14.964-13.867 28.851-13.867 13.888-28.8 13.888h-138.667v-253.705zM646.4 281.809v80.858h74.667v-80.858h-74.667zM194.295 57.623q-29.439 0-51.056 21.616-21.616 21.617-21.616 51.056v635.409q0 29.543 21.616 51.235 21.617 21.693 51.056 21.693h635.409q29.543 0 51.235-21.693t21.693-51.235v-635.409q0-29.439-21.693-51.056-21.692-21.616-51.235-21.616h-635.409z" />
<glyph unicode="&#xe95d;" glyph-name="mp15" d="M358.4 477.705h53.333v256h-120.533v-53.333h67.2v-202.667zM581.333 477.705h58.667l65.067 204.8q7.467 19.2-3.588 35.2t-29.478 16h-153.6v-53.333h122.667l-59.733-202.667zM248.533 162.295h53.333v200.371h56.533v-134.446h53.333v134.446h64v-200.371h53.333v211.038q0 14.933-13.867 28.8t-28.8 13.867h-195.2q-14.933 0-28.8-13.867t-13.867-28.8v-211.038zM593.067 162.295h53.333v66.18h85.333q14.933 0 28.8 13.739t13.867 28.928v102.118q0 14.964-13.867 28.851-13.867 13.888-28.8 13.888h-138.667v-253.705zM646.4 281.809v80.858h74.667v-80.858h-74.667zM194.295 57.623q-29.439 0-51.056 21.616-21.616 21.617-21.616 51.056v635.409q0 29.543 21.616 51.235 21.617 21.693 51.056 21.693h635.409q29.543 0 51.235-21.693t21.693-51.235v-635.409q0-29.439-21.693-51.056-21.692-21.616-51.235-21.616h-635.409zM194.295 130.295h635.409v635.409h-635.409v-635.409zM194.295 765.705v0z" />
<glyph unicode="&#xe95e;" glyph-name="up_rating-fill" d="M358.4 320h53.333v256h-120.533v-53.333h67.2v-202.667zM539.733 320h96q14.933 0 28.8 13.867t13.867 28.8v170.667q0 14.933-13.867 28.8t-28.8 13.867h-96q-14.933 0-28.8-13.867t-13.867-28.8v-170.667q0-14.933 13.867-28.8t28.8-13.867zM550.4 360.533v68.267h74.667v-68.267h-74.667zM550.4 467.2v68.267h74.667v-68.267h-74.667zM194.295 57.623q-29.439 0-51.056 21.616-21.616 21.617-21.616 51.056v635.409q0 29.543 21.616 51.235 21.617 21.693 51.056 21.693h635.409q29.543 0 51.235-21.693t21.693-51.235v-635.409q0-29.439-21.693-51.056-21.692-21.616-51.235-21.616h-635.409z" />
<glyph unicode="&#xe95f;" glyph-name="up_rating" d="M358.4 320h53.333v256h-120.533v-53.333h67.2v-202.667zM539.733 320h96q14.933 0 28.8 13.867t13.867 28.8v170.667q0 14.933-13.867 28.8t-28.8 13.867h-96q-14.933 0-28.8-13.867t-13.867-28.8v-170.667q0-14.933 13.867-28.8t28.8-13.867zM550.4 360.533v68.267h74.667v-68.267h-74.667zM550.4 467.2v68.267h74.667v-68.267h-74.667zM194.295 57.623q-29.439 0-51.056 21.616-21.616 21.617-21.616 51.056v635.409q0 29.543 21.616 51.235 21.617 21.693 51.056 21.693h635.409q29.543 0 51.235-21.693t21.693-51.235v-635.409q0-29.439-21.693-51.056-21.692-21.616-51.235-21.616h-635.409zM194.295 130.295h635.409v635.409h-635.409v-635.409zM194.295 765.705v0z" />
<glyph unicode="&#xe960;" glyph-name="mp-fill16" d="M358.4 477.705h53.333v256h-120.533v-53.333h67.2v-202.667zM561.067 477.705h96q14.933 0 28.8 13.867t13.867 28.8v170.667q0 14.933-13.867 28.8t-28.8 13.867h-96q-14.933 0-28.8-13.867t-13.867-28.8v-170.667q0-14.933 13.867-28.8t28.8-13.867zM571.733 624.905v68.267h74.667v-68.267h-74.667zM571.733 518.238v68.267h74.667v-68.267h-74.667zM248.533 162.295h53.333v200.371h56.533v-134.446h53.333v134.446h64v-200.371h53.333v211.038q0 14.933-13.867 28.8t-28.8 13.867h-195.2q-14.933 0-28.8-13.867t-13.867-28.8v-211.038zM593.067 162.295h53.333v66.18h85.333q14.933 0 28.8 13.739t13.867 28.928v102.118q0 14.964-13.867 28.851-13.867 13.888-28.8 13.888h-138.667v-253.705zM646.4 281.809v80.858h74.667v-80.858h-74.667zM194.295 57.623q-29.439 0-51.056 21.616-21.616 21.617-21.616 51.056v635.409q0 29.543 21.616 51.235 21.617 21.693 51.056 21.693h635.409q29.543 0 51.235-21.693t21.693-51.235v-635.409q0-29.439-21.693-51.056-21.692-21.616-51.235-21.616h-635.409z" />
<glyph unicode="&#xe961;" glyph-name="mp16" d="M358.4 477.705h53.333v256h-120.533v-53.333h67.2v-202.667zM561.067 477.705h96q14.933 0 28.8 13.867t13.867 28.8v170.667q0 14.933-13.867 28.8t-28.8 13.867h-96q-14.933 0-28.8-13.867t-13.867-28.8v-170.667q0-14.933 13.867-28.8t28.8-13.867zM571.733 624.905v68.267h74.667v-68.267h-74.667zM571.733 518.238v68.267h74.667v-68.267h-74.667zM248.533 162.295h53.333v200.371h56.533v-134.446h53.333v134.446h64v-200.371h53.333v211.038q0 14.933-13.867 28.8t-28.8 13.867h-195.2q-14.933 0-28.8-13.867t-13.867-28.8v-211.038zM593.067 162.295h53.333v66.18h85.333q14.933 0 28.8 13.739t13.867 28.928v102.118q0 14.964-13.867 28.851-13.867 13.888-28.8 13.888h-138.667v-253.705zM646.4 281.809v80.858h74.667v-80.858h-74.667zM194.295 57.623q-29.439 0-51.056 21.616-21.616 21.617-21.616 51.056v635.409q0 29.543 21.616 51.235 21.617 21.693 51.056 21.693h635.409q29.543 0 51.235-21.693t21.693-51.235v-635.409q0-29.439-21.693-51.056-21.692-21.616-51.235-21.616h-635.409zM194.295 130.295h635.409v635.409h-635.409v-635.409zM194.295 765.705v0z" />
<glyph unicode="&#xe962;" glyph-name="mp-fill17" d="M358.4 477.705h53.333v256h-120.533v-53.333h67.2v-202.667zM518.4 477.705h138.667q14.933 0 28.8 13.867t13.867 28.8v170.667q0 14.933-13.867 28.8t-28.8 13.867h-96q-14.933 0-28.8-13.867t-13.867-28.8v-60.8q0-14.933 13.867-28.8t28.8-13.867h85.333v-56.533h-128v-53.333zM571.733 622.771v68.267h74.667v-68.267h-74.667zM248.533 162.295h53.333v200.371h56.533v-134.446h53.333v134.446h64v-200.371h53.333v211.038q0 14.933-13.867 28.8t-28.8 13.867h-195.2q-14.933 0-28.8-13.867t-13.867-28.8v-211.038zM593.067 162.295h53.333v66.18h85.333q14.933 0 28.8 13.739t13.867 28.928v102.118q0 14.964-13.867 28.851-13.867 13.888-28.8 13.888h-138.667v-253.705zM646.4 281.809v80.858h74.667v-80.858h-74.667zM194.295 57.623q-29.439 0-51.056 21.616-21.616 21.617-21.616 51.056v635.409q0 29.543 21.616 51.235 21.617 21.693 51.056 21.693h635.409q29.543 0 51.235-21.693t21.693-51.235v-635.409q0-29.439-21.693-51.056-21.692-21.616-51.235-21.616h-635.409z" />
<glyph unicode="&#xe963;" glyph-name="mp17" d="M358.4 477.705h53.333v256h-120.533v-53.333h67.2v-202.667zM518.4 477.705h138.667q14.933 0 28.8 13.867t13.867 28.8v170.667q0 14.933-13.867 28.8t-28.8 13.867h-96q-14.933 0-28.8-13.867t-13.867-28.8v-60.8q0-14.933 13.867-28.8t28.8-13.867h85.333v-56.533h-128v-53.333zM571.733 622.771v68.267h74.667v-68.267h-74.667zM248.533 162.295h53.333v200.371h56.533v-134.446h53.333v134.446h64v-200.371h53.333v211.038q0 14.933-13.867 28.8t-28.8 13.867h-195.2q-14.933 0-28.8-13.867t-13.867-28.8v-211.038zM593.067 162.295h53.333v66.18h85.333q14.933 0 28.8 13.739t13.867 28.928v102.118q0 14.964-13.867 28.851-13.867 13.888-28.8 13.888h-138.667v-253.705zM646.4 281.809v80.858h74.667v-80.858h-74.667zM194.295 57.623q-29.439 0-51.056 21.616-21.616 21.617-21.616 51.056v635.409q0 29.543 21.616 51.235 21.617 21.693 51.056 21.693h635.409q29.543 0 51.235-21.693t21.693-51.235v-635.409q0-29.439-21.693-51.056-21.692-21.616-51.235-21.616h-635.409zM194.295 130.295h635.409v635.409h-635.409v-635.409zM194.295 765.705v0z" />
<glyph unicode="&#xe964;" glyph-name="mp-fill18" d="M266.667 477.705h181.333v53.333h-128v56.533h85.333q14.933 0 28.8 13.867t13.867 28.8v60.8q0 14.933-13.867 28.8t-28.8 13.867h-138.667v-53.333h128v-57.6h-85.333q-14.933 0-28.8-13.867t-13.867-28.8v-102.4zM611.2 477.705h96q14.933 0 28.8 13.867t13.867 28.8v170.667q0 14.933-13.867 28.8t-28.8 13.867h-96q-14.933 0-28.8-13.867t-13.867-28.8v-170.667q0-14.933 13.867-28.8t28.8-13.867zM614.4 531.038v149.333h82.133v-149.333h-82.133zM248.533 162.295h53.333v200.371h56.533v-134.446h53.333v134.446h64v-200.371h53.333v211.038q0 14.933-13.867 28.8t-28.8 13.867h-195.2q-14.933 0-28.8-13.867t-13.867-28.8v-211.038zM593.067 162.295h53.333v66.18h85.333q14.933 0 28.8 13.739t13.867 28.928v102.118q0 14.964-13.867 28.851-13.867 13.888-28.8 13.888h-138.667v-253.705zM646.4 281.809v80.858h74.667v-80.858h-74.667zM194.295 57.623q-29.439 0-51.056 21.616-21.616 21.617-21.616 51.056v635.409q0 29.543 21.616 51.235 21.617 21.693 51.056 21.693h635.409q29.543 0 51.235-21.693t21.693-51.235v-635.409q0-29.439-21.693-51.056-21.692-21.616-51.235-21.616h-635.409z" />
<glyph unicode="&#xe965;" glyph-name="mp18" d="M266.667 477.705h181.333v53.333h-128v56.533h85.333q14.933 0 28.8 13.867t13.867 28.8v60.8q0 14.933-13.867 28.8t-28.8 13.867h-138.667v-53.333h128v-57.6h-85.333q-14.933 0-28.8-13.867t-13.867-28.8v-102.4zM611.2 477.705h96q14.933 0 28.8 13.867t13.867 28.8v170.667q0 14.933-13.867 28.8t-28.8 13.867h-96q-14.933 0-28.8-13.867t-13.867-28.8v-170.667q0-14.933 13.867-28.8t28.8-13.867zM614.4 531.038v149.333h82.133v-149.333h-82.133zM248.533 162.295h53.333v200.371h56.533v-134.446h53.333v134.446h64v-200.371h53.333v211.038q0 14.933-13.867 28.8t-28.8 13.867h-195.2q-14.933 0-28.8-13.867t-13.867-28.8v-211.038zM593.067 162.295h53.333v66.18h85.333q14.933 0 28.8 13.739t13.867 28.928v102.118q0 14.964-13.867 28.851-13.867 13.888-28.8 13.888h-138.667v-253.705zM646.4 281.809v80.858h74.667v-80.858h-74.667zM194.295 57.623q-29.439 0-51.056 21.616-21.616 21.617-21.616 51.056v635.409q0 29.543 21.616 51.235 21.617 21.693 51.056 21.693h635.409q29.543 0 51.235-21.693t21.693-51.235v-635.409q0-29.439-21.693-51.056-21.692-21.616-51.235-21.616h-635.409zM194.295 130.295h635.409v635.409h-635.409v-635.409zM194.295 765.705v0z" />
<glyph unicode="&#xe966;" glyph-name="mp-fill19" d="M315.733 477.705h181.333v53.333h-128v56.533h85.333q14.933 0 28.8 13.867t13.867 28.8v60.8q0 14.933-13.867 28.8t-28.8 13.867h-138.667v-53.333h128v-57.6h-85.333q-14.933 0-28.8-13.867t-13.867-28.8v-102.4zM635.733 477.705h53.333v256h-120.533v-53.333h67.2v-202.667zM248.533 162.295h53.333v200.371h56.533v-134.446h53.333v134.446h64v-200.371h53.333v211.038q0 14.933-13.867 28.8t-28.8 13.867h-195.2q-14.933 0-28.8-13.867t-13.867-28.8v-211.038zM593.067 162.295h53.333v66.18h85.333q14.933 0 28.8 13.739t13.867 28.928v102.118q0 14.964-13.867 28.851-13.867 13.888-28.8 13.888h-138.667v-253.705zM646.4 281.809v80.858h74.667v-80.858h-74.667zM194.295 57.623q-29.439 0-51.056 21.616-21.616 21.617-21.616 51.056v635.409q0 29.543 21.616 51.235 21.617 21.693 51.056 21.693h635.409q29.543 0 51.235-21.693t21.693-51.235v-635.409q0-29.439-21.693-51.056-21.692-21.616-51.235-21.616h-635.409z" />
<glyph unicode="&#xe967;" glyph-name="mp19" d="M315.733 477.705h181.333v53.333h-128v56.533h85.333q14.933 0 28.8 13.867t13.867 28.8v60.8q0 14.933-13.867 28.8t-28.8 13.867h-138.667v-53.333h128v-57.6h-85.333q-14.933 0-28.8-13.867t-13.867-28.8v-102.4zM635.733 477.705h53.333v256h-120.533v-53.333h67.2v-202.667zM248.533 162.295h53.333v200.371h56.533v-134.446h53.333v134.446h64v-200.371h53.333v211.038q0 14.933-13.867 28.8t-28.8 13.867h-195.2q-14.933 0-28.8-13.867t-13.867-28.8v-211.038zM593.067 162.295h53.333v66.18h85.333q14.933 0 28.8 13.739t13.867 28.928v102.118q0 14.964-13.867 28.851-13.867 13.888-28.8 13.888h-138.667v-253.705zM646.4 281.809v80.858h74.667v-80.858h-74.667zM194.295 57.623q-29.439 0-51.056 21.616-21.616 21.617-21.616 51.056v635.409q0 29.543 21.616 51.235 21.617 21.693 51.056 21.693h635.409q29.543 0 51.235-21.693t21.693-51.235v-635.409q0-29.439-21.693-51.056-21.692-21.616-51.235-21.616h-635.409zM194.295 130.295h635.409v635.409h-635.409v-635.409zM194.295 765.705v0z" />
<glyph unicode="&#xe968;" glyph-name="mp-fill20" d="M266.667 477.705h181.333v53.333h-128v56.533h85.333q14.933 0 28.8 13.867t13.867 28.8v60.8q0 14.933-13.867 28.8t-28.8 13.867h-138.667v-53.333h128v-57.6h-85.333q-14.933 0-28.8-13.867t-13.867-28.8v-102.4zM568.533 477.705h181.333v53.333h-128v56.533h85.333q14.933 0 28.8 13.867t13.867 28.8v60.8q0 14.933-13.867 28.8t-28.8 13.867h-138.667v-53.333h128v-57.6h-85.333q-14.933 0-28.8-13.867t-13.867-28.8v-102.4zM248.533 162.295h53.333v200.371h56.533v-134.446h53.333v134.446h64v-200.371h53.333v211.038q0 14.933-13.867 28.8t-28.8 13.867h-195.2q-14.933 0-28.8-13.867t-13.867-28.8v-211.038zM593.067 162.295h53.333v66.18h85.333q14.933 0 28.8 13.739t13.867 28.928v102.118q0 14.964-13.867 28.851-13.867 13.888-28.8 13.888h-138.667v-253.705zM646.4 281.809v80.858h74.667v-80.858h-74.667zM194.295 57.623q-29.439 0-51.056 21.616-21.616 21.617-21.616 51.056v635.409q0 29.543 21.616 51.235 21.617 21.693 51.056 21.693h635.409q29.543 0 51.235-21.693t21.693-51.235v-635.409q0-29.439-21.693-51.056-21.692-21.616-51.235-21.616h-635.409z" />
<glyph unicode="&#xe969;" glyph-name="mp20" d="M266.667 477.705h181.333v53.333h-128v56.533h85.333q14.933 0 28.8 13.867t13.867 28.8v60.8q0 14.933-13.867 28.8t-28.8 13.867h-138.667v-53.333h128v-57.6h-85.333q-14.933 0-28.8-13.867t-13.867-28.8v-102.4zM568.533 477.705h181.333v53.333h-128v56.533h85.333q14.933 0 28.8 13.867t13.867 28.8v60.8q0 14.933-13.867 28.8t-28.8 13.867h-138.667v-53.333h128v-57.6h-85.333q-14.933 0-28.8-13.867t-13.867-28.8v-102.4zM248.533 162.295h53.333v200.371h56.533v-134.446h53.333v134.446h64v-200.371h53.333v211.038q0 14.933-13.867 28.8t-28.8 13.867h-195.2q-14.933 0-28.8-13.867t-13.867-28.8v-211.038zM593.067 162.295h53.333v66.18h85.333q14.933 0 28.8 13.739t13.867 28.928v102.118q0 14.964-13.867 28.851-13.867 13.888-28.8 13.888h-138.667v-253.705zM646.4 281.809v80.858h74.667v-80.858h-74.667zM194.295 57.623q-29.439 0-51.056 21.616-21.616 21.617-21.616 51.056v635.409q0 29.543 21.616 51.235 21.617 21.693 51.056 21.693h635.409q29.543 0 51.235-21.693t21.693-51.235v-635.409q0-29.439-21.693-51.056-21.692-21.616-51.235-21.616h-635.409zM194.295 130.295h635.409v635.409h-635.409v-635.409zM194.295 765.705v0z" />
<glyph unicode="&#xe96a;" glyph-name="mp-fill21" d="M266.667 477.705h181.333v53.333h-128v56.533h85.333q14.933 0 28.8 13.867t13.867 28.8v60.8q0 14.933-13.867 28.8t-28.8 13.867h-138.667v-53.333h128v-57.6h-85.333q-14.933 0-28.8-13.867t-13.867-28.8v-102.4zM554.667 477.705h138.667q14.933 0 28.8 13.867t13.867 28.8v170.667q0 14.933-13.867 28.8t-28.8 13.867h-138.667v-53.333h128v-57.6h-78.933v-35.2h78.933v-56.533h-128v-53.333zM248.533 162.295h53.333v200.371h56.533v-134.446h53.333v134.446h64v-200.371h53.333v211.038q0 14.933-13.867 28.8t-28.8 13.867h-195.2q-14.933 0-28.8-13.867t-13.867-28.8v-211.038zM593.067 162.295h53.333v66.18h85.333q14.933 0 28.8 13.739t13.867 28.928v102.118q0 14.964-13.867 28.851-13.867 13.888-28.8 13.888h-138.667v-253.705zM646.4 281.809v80.858h74.667v-80.858h-74.667zM194.295 57.623q-29.439 0-51.056 21.616-21.616 21.617-21.616 51.056v635.409q0 29.543 21.616 51.235 21.617 21.693 51.056 21.693h635.409q29.543 0 51.235-21.693t21.693-51.235v-635.409q0-29.439-21.693-51.056-21.692-21.616-51.235-21.616h-635.409z" />
<glyph unicode="&#xe96b;" glyph-name="mp21" d="M266.667 477.705h181.333v53.333h-128v56.533h85.333q14.933 0 28.8 13.867t13.867 28.8v60.8q0 14.933-13.867 28.8t-28.8 13.867h-138.667v-53.333h128v-57.6h-85.333q-14.933 0-28.8-13.867t-13.867-28.8v-102.4zM554.667 477.705h138.667q14.933 0 28.8 13.867t13.867 28.8v170.667q0 14.933-13.867 28.8t-28.8 13.867h-138.667v-53.333h128v-57.6h-78.933v-35.2h78.933v-56.533h-128v-53.333zM248.533 162.295h53.333v200.371h56.533v-134.446h53.333v134.446h64v-200.371h53.333v211.038q0 14.933-13.867 28.8t-28.8 13.867h-195.2q-14.933 0-28.8-13.867t-13.867-28.8v-211.038zM593.067 162.295h53.333v66.18h85.333q14.933 0 28.8 13.739t13.867 28.928v102.118q0 14.964-13.867 28.851-13.867 13.888-28.8 13.888h-138.667v-253.705zM646.4 281.809v80.858h74.667v-80.858h-74.667zM194.295 57.623q-29.439 0-51.056 21.616-21.616 21.617-21.616 51.056v635.409q0 29.543 21.616 51.235 21.617 21.693 51.056 21.693h635.409q29.543 0 51.235-21.693t21.693-51.235v-635.409q0-29.439-21.693-51.056-21.692-21.616-51.235-21.616h-635.409zM194.295 130.295h635.409v635.409h-635.409v-635.409zM194.295 765.705v0z" />
<glyph unicode="&#xe96c;" glyph-name="mp-fill22" d="M266.667 477.705h181.333v53.333h-128v56.533h85.333q14.933 0 28.8 13.867t13.867 28.8v60.8q0 14.933-13.867 28.8t-28.8 13.867h-138.667v-53.333h128v-57.6h-85.333q-14.933 0-28.8-13.867t-13.867-28.8v-102.4zM659.038 477.705h53.333v67.2h49.067v53.333h-49.067v135.467h-53.333v-135.467h-60.8v135.467h-53.333v-188.8h114.133v-67.2zM248.533 162.295h53.333v200.371h56.533v-134.446h53.333v134.446h64v-200.371h53.333v211.038q0 14.933-13.867 28.8t-28.8 13.867h-195.2q-14.933 0-28.8-13.867t-13.867-28.8v-211.038zM593.067 162.295h53.333v66.18h85.333q14.933 0 28.8 13.739t13.867 28.928v102.118q0 14.964-13.867 28.851-13.867 13.888-28.8 13.888h-138.667v-253.705zM646.4 281.809v80.858h74.667v-80.858h-74.667zM194.295 57.623q-29.439 0-51.056 21.616-21.616 21.617-21.616 51.056v635.409q0 29.543 21.616 51.235 21.617 21.693 51.056 21.693h635.409q29.543 0 51.235-21.693t21.693-51.235v-635.409q0-29.439-21.693-51.056-21.692-21.616-51.235-21.616h-635.409z" />
<glyph unicode="&#xe96d;" glyph-name="mp22" d="M266.667 477.705h181.333v53.333h-128v56.533h85.333q14.933 0 28.8 13.867t13.867 28.8v60.8q0 14.933-13.867 28.8t-28.8 13.867h-138.667v-53.333h128v-57.6h-85.333q-14.933 0-28.8-13.867t-13.867-28.8v-102.4zM659.038 477.705h53.333v67.2h49.067v53.333h-49.067v135.467h-53.333v-135.467h-60.8v135.467h-53.333v-188.8h114.133v-67.2zM248.533 162.295h53.333v200.371h56.533v-134.446h53.333v134.446h64v-200.371h53.333v211.038q0 14.933-13.867 28.8t-28.8 13.867h-195.2q-14.933 0-28.8-13.867t-13.867-28.8v-211.038zM593.067 162.295h53.333v66.18h85.333q14.933 0 28.8 13.739t13.867 28.928v102.118q0 14.964-13.867 28.851-13.867 13.888-28.8 13.888h-138.667v-253.705zM646.4 281.809v80.858h74.667v-80.858h-74.667zM194.295 57.623q-29.439 0-51.056 21.616-21.616 21.617-21.616 51.056v635.409q0 29.543 21.616 51.235 21.617 21.693 51.056 21.693h635.409q29.543 0 51.235-21.693t21.693-51.235v-635.409q0-29.439-21.693-51.056-21.692-21.616-51.235-21.616h-635.409zM194.295 130.295h635.409v635.409h-635.409v-635.409zM194.295 765.705v0z" />
<glyph unicode="&#xe96e;" glyph-name="fps_select-fill" d="M180.661 359.861v69.611h209.205v112.997h-210.272v67.061h210.272v112.997h-209.205v69.611h209.205q28.405 0 49.136-20.603t20.731-49.008v-88.975q0-24.429-16.197-40.098t-36.255-17.455q20.058-1.786 36.255-19.802t16.197-42.018v-84.708q0-28.405-20.731-49.008t-49.136-20.603h-209.205zM780.405 359.861h-144.139q-28.405 0-49.136 20.603t-20.731 49.008v293.056q0 28.405 20.731 49.008t49.136 20.603h144.139q28.69 0 49.406-20.603 20.717-20.603 20.717-49.008v-293.056q0-28.405-20.717-49.008t-49.406-20.603zM780.405 429.472v293.056h-144.139v-293.056h144.139zM117.797 21.333v200.533h67.060v-200.533h-67.060zM248.858 21.333v200.533h66.806v-200.533h-66.806zM379.664 21.333v200.533h66.805v-200.533h-66.805zM510.469 21.333v200.533h395.989v-200.533h-395.989z" />
<glyph unicode="&#xe96f;" glyph-name="fps_select" d="M180.661 359.861v69.611h209.205v112.997h-210.272v67.061h210.272v112.997h-209.205v69.611h209.205q28.405 0 49.136-20.603t20.731-49.008v-88.975q0-24.429-16.197-40.098t-36.255-17.455q20.058-1.786 36.255-19.802t16.197-42.018v-84.708q0-28.405-20.731-49.008t-49.136-20.603h-209.205zM780.405 359.861h-144.139q-28.405 0-49.136 20.603t-20.731 49.008v293.056q0 28.405 20.731 49.008t49.136 20.603h144.139q28.69 0 49.406-20.603 20.717-20.603 20.717-49.008v-293.056q0-28.405-20.717-49.008t-49.406-20.603zM780.405 429.472v293.056h-144.139v-293.056h144.139zM117.797 21.333v200.533h67.060v-200.533h-67.060zM248.858 21.333v200.533h66.806v-200.533h-66.806zM379.664 21.333v200.533h66.805v-200.533h-66.805zM510.469 21.333v200.533h395.989v-200.533h-395.989z" />
<glyph unicode="&#xe970;" glyph-name="fps-fill" d="M82.528 147.803v88.395h272v167.605h-268.8v88.395h268.8v167.605h-272v88.395h272q36.831 0 62.484-25.781 25.654-25.782 25.654-62.613v-138.177q0-29.626-18.736-52.054t-47.884-23.705q29.148-1.276 47.884-21.571t18.736-49.921v-138.177q0-36.831-25.612-62.613-25.612-25.781-62.527-25.781h-272zM623.605 236.197h229.728v423.605h-229.728v-423.605zM623.605 147.803q-36.915 0-62.527 25.781-25.612 25.782-25.612 62.613v423.605q0 36.831 25.612 62.613 25.612 25.781 62.527 25.781h229.728q36.916 0 62.528-25.781 25.611-25.782 25.611-62.613v-423.605q0-36.831-25.611-62.613-25.612-25.781-62.528-25.781h-229.728z" />
<glyph unicode="&#xe971;" glyph-name="fps" d="M82.528 147.803v88.395h272v167.605h-268.8v88.395h268.8v167.605h-272v88.395h272q36.831 0 62.484-25.781 25.654-25.782 25.654-62.613v-138.177q0-29.626-18.736-52.054t-47.884-23.705q29.148-1.276 47.884-21.571t18.736-49.921v-138.177q0-36.831-25.612-62.613-25.612-25.781-62.527-25.781h-272zM623.605 236.197h229.728v423.605h-229.728v-423.605zM623.605 147.803q-36.915 0-62.527 25.781-25.612 25.782-25.612 62.613v423.605q0 36.831 25.612 62.613 25.612 25.781 62.527 25.781h229.728q36.916 0 62.528-25.781 25.611-25.782 25.611-62.613v-423.605q0-36.831-25.611-62.613-25.612-25.781-62.528-25.781h-229.728z" />
<glyph unicode="&#xe972;" glyph-name="mp-fill23" d="M589.867 477.705h96q14.933 0 28.8 13.867t13.867 28.8v170.667q0 14.933-13.867 28.8t-28.8 13.867h-96q-14.933 0-28.8-13.867t-13.867-28.8v-170.667q0-14.933 13.867-28.8t28.8-13.867zM593.067 531.038v149.333h82.133v-149.333h-82.133zM248.533 162.295h53.333v200.371h56.533v-134.446h53.333v134.446h64v-200.371h53.333v211.038q0 14.933-13.867 28.8t-28.8 13.867h-195.2q-14.933 0-28.8-13.867t-13.867-28.8v-211.038zM593.067 162.295h53.333v66.18h85.333q14.933 0 28.8 13.739t13.867 28.928v102.118q0 14.964-13.867 28.851-13.867 13.888-28.8 13.888h-138.667v-253.705zM646.4 281.809v80.858h74.667v-80.858h-74.667zM194.295 57.623q-29.439 0-51.056 21.616-21.616 21.617-21.616 51.056v635.409q0 29.543 21.616 51.235 21.617 21.693 51.056 21.693h635.409q29.543 0 51.235-21.693t21.693-51.235v-635.409q0-29.439-21.693-51.056-21.692-21.616-51.235-21.616h-635.409zM283.733 477.705h138.667q14.933 0 28.8 13.867t13.867 28.8v59.733q0 14.933-13.867 28.8t-28.8 13.867h-85.333v57.6h128v53.333h-181.333v-146.133h128v-56.533h-128v-53.333z" />
<glyph unicode="&#xe973;" glyph-name="mp23" d="M589.867 477.705h96q14.933 0 28.8 13.867t13.867 28.8v170.667q0 14.933-13.867 28.8t-28.8 13.867h-96q-14.933 0-28.8-13.867t-13.867-28.8v-170.667q0-14.933 13.867-28.8t28.8-13.867zM593.067 531.038v149.333h82.133v-149.333h-82.133zM248.533 162.295h53.333v200.371h56.533v-134.446h53.333v134.446h64v-200.371h53.333v211.038q0 14.933-13.867 28.8t-28.8 13.867h-195.2q-14.933 0-28.8-13.867t-13.867-28.8v-211.038zM593.067 162.295h53.333v66.18h85.333q14.933 0 28.8 13.739t13.867 28.928v102.118q0 14.964-13.867 28.851-13.867 13.888-28.8 13.888h-138.667v-253.705zM646.4 281.809v80.858h74.667v-80.858h-74.667zM194.295 57.623q-29.439 0-51.056 21.616-21.616 21.617-21.616 51.056v635.409q0 29.543 21.616 51.235 21.617 21.693 51.056 21.693h635.409q29.543 0 51.235-21.693t21.693-51.235v-635.409q0-29.439-21.693-51.056-21.692-21.616-51.235-21.616h-635.409zM194.295 130.295h635.409v635.409h-635.409v-635.409zM194.295 765.705v0zM283.733 477.705h138.667q14.933 0 28.8 13.867t13.867 28.8v59.733q0 14.933-13.867 28.8t-28.8 13.867h-85.333v57.6h128v53.333h-181.333v-146.133h128v-56.533h-128v-53.333z" />
<glyph unicode="&#xe974;" glyph-name="fps_select-fill1" d="M389.867 359.861h-149.472q-28.585 0-49.226 20.603-20.642 20.603-20.642 49.008v293.056q0 28.405 20.642 49.008 20.641 20.603 49.226 20.603h219.339v-69.611h-219.339v-111.723h149.472q28.405 0 49.136-20.603t20.731-49.008v-111.723q0-28.405-20.731-49.008t-49.136-20.603zM240.395 541.195v-111.723h149.472v111.723h-149.472zM785.739 359.861h-149.472q-28.405 0-49.136 20.603t-20.731 49.008v293.056q0 28.405 20.731 49.008t49.136 20.603h149.472q28.69 0 49.406-20.603 20.717-20.603 20.717-49.008v-293.056q0-28.405-20.717-49.008t-49.406-20.603zM785.739 429.472v293.056h-149.472v-293.056h149.472zM117.797 21.333v200.533h67.060v-200.533h-67.060zM248.858 21.333v200.533h66.806v-200.533h-66.806zM379.664 21.333v200.533h66.805v-200.533h-66.805zM510.469 21.333v200.533h395.989v-200.533h-395.989z" />
<glyph unicode="&#xe975;" glyph-name="fps_select1" d="M389.867 359.861h-149.472q-28.585 0-49.226 20.603-20.642 20.603-20.642 49.008v293.056q0 28.405 20.642 49.008 20.641 20.603 49.226 20.603h219.339v-69.611h-219.339v-111.723h149.472q28.405 0 49.136-20.603t20.731-49.008v-111.723q0-28.405-20.731-49.008t-49.136-20.603zM240.395 541.195v-111.723h149.472v111.723h-149.472zM785.739 359.861h-149.472q-28.405 0-49.136 20.603t-20.731 49.008v293.056q0 28.405 20.731 49.008t49.136 20.603h149.472q28.69 0 49.406-20.603 20.717-20.603 20.717-49.008v-293.056q0-28.405-20.717-49.008t-49.406-20.603zM785.739 429.472v293.056h-149.472v-293.056h149.472zM117.797 21.333v200.533h67.060v-200.533h-67.060zM248.858 21.333v200.533h66.806v-200.533h-66.806zM379.664 21.333v200.533h66.805v-200.533h-66.805zM510.469 21.333v200.533h395.989v-200.533h-395.989z" />
<glyph unicode="&#xe976;" glyph-name="fps-fill1" d="M354.528 147.803h-183.861q-36.916 0-62.528 25.781-25.611 25.782-25.611 62.613v423.605q0 36.831 25.611 62.613 25.612 25.781 62.528 25.781h226.133v-88.395h-226.133v-144.139h183.861q36.915 0 62.527-25.781t25.612-62.613v-191.072q0-36.831-25.612-62.613-25.612-25.781-62.527-25.781zM170.667 427.269v-191.072h183.861v191.072h-183.861zM623.605 236.197h229.728v423.605h-229.728v-423.605zM623.605 147.803q-36.915 0-62.527 25.781-25.612 25.782-25.612 62.613v423.605q0 36.831 25.612 62.613 25.612 25.781 62.527 25.781h229.728q36.916 0 62.528-25.781 25.611-25.782 25.611-62.613v-423.605q0-36.831-25.611-62.613-25.612-25.781-62.528-25.781h-229.728z" />
<glyph unicode="&#xe977;" glyph-name="fps1" d="M354.528 147.803h-183.861q-36.916 0-62.528 25.781-25.611 25.782-25.611 62.613v423.605q0 36.831 25.611 62.613 25.612 25.781 62.528 25.781h226.133v-88.395h-226.133v-144.139h183.861q36.915 0 62.527-25.781t25.612-62.613v-191.072q0-36.831-25.612-62.613-25.612-25.781-62.527-25.781zM170.667 427.269v-191.072h183.861v191.072h-183.861zM623.605 236.197h229.728v423.605h-229.728v-423.605zM623.605 147.803q-36.915 0-62.527 25.781-25.612 25.782-25.612 62.613v423.605q0 36.831 25.612 62.613 25.612 25.781 62.527 25.781h229.728q36.916 0 62.528-25.781 25.611-25.782 25.611-62.613v-423.605q0-36.831-25.611-62.613-25.612-25.781-62.528-25.781h-229.728z" />
<glyph unicode="&#xe978;" glyph-name="fill" d="M231.733 318.469v204.8h-66.933v54.261h121.067v-259.061h-54.133zM375.212 318.469v117.333q0 16.867 10.465 27.332t27.422 10.465h102.913v49.669h-140.8v54.261h157.36q16.516 0 27.108-10.465t10.592-27.424v-79.353q0-16.959-10.573-27.424t-27.223-10.465h-103.004v-49.669h140.8v-54.261h-195.060zM642.805 318.469v54.261h140.8v49.669h-98.133v51.2h98.133v49.669h-140.8v54.261h157.319q16.812 0 27.277-10.465t10.465-27.332v-183.467q0-16.867-10.465-27.332t-27.277-10.465h-157.319z" />
<glyph unicode="&#xe979;" glyph-name="123" d="M231.733 318.469v204.8h-66.933v54.261h121.067v-259.061h-54.133zM375.212 318.469v117.333q0 16.867 10.465 27.332t27.422 10.465h102.913v49.669h-140.8v54.261h157.36q16.516 0 27.108-10.465t10.592-27.424v-79.353q0-16.959-10.573-27.424t-27.223-10.465h-103.004v-49.669h140.8v-54.261h-195.060zM642.805 318.469v54.261h140.8v49.669h-98.133v51.2h98.133v49.669h-140.8v54.261h157.319q16.812 0 27.277-10.465t10.465-27.332v-183.467q0-16.867-10.465-27.332t-27.277-10.465h-157.319z" />
<glyph unicode="&#xe97a;" glyph-name="fill1" d="M379.779 109.286l-47.651 47.908 82.782 83.594q-148.638 16.51-242.295 71.931-93.658 55.42-93.658 141.681 0 89.623 125.924 149.461t307.119 59.838q182.005 0 307.652-59.711 125.647-59.71 125.647-149.588 0-67.014-70.052-116.928t-186.18-75.049v77.75q85.333 20.314 134.319 53.936t48.986 60.29q0 34.643-87.536 85.507-87.537 50.864-272.835 50.864-184.231 0-272.302-50.864-88.069-50.864-88.069-85.507 0-48 59.038-81.519t210.505-62.319l-89.043 86.91 47.651 48.163 168.302-167.235-168.302-169.114z" />
<glyph unicode="&#xe97b;" glyph-name="360" d="M379.779 109.286l-47.651 47.908 82.782 83.594q-148.638 16.51-242.295 71.931-93.658 55.42-93.658 141.681 0 89.623 125.924 149.461t307.119 59.838q182.005 0 307.652-59.711 125.647-59.71 125.647-149.588 0-67.014-70.052-116.928t-186.18-75.049v77.75q85.333 20.314 134.319 53.936t48.986 60.29q0 34.643-87.536 85.507-87.537 50.864-272.835 50.864-184.231 0-272.302-50.864-88.069-50.864-88.069-85.507 0-48 59.038-81.519t210.505-62.319l-89.043 86.91 47.651 48.163 168.302-167.235-168.302-169.114z" />
<glyph unicode="&#xe97c;" glyph-name="abc-fill" d="M714.272 318.469q-16.758 0-27.15 10.465t-10.391 27.332v183.467q0 16.867 10.391 27.332t27.15 10.465h148.267q16.868 0 27.332-10.465 10.465-10.465 10.465-27.332v-50.597h-54.005v34.133h-115.595v-150.539h115.595v34.133h54.005v-50.526q0-16.836-10.465-27.353t-27.332-10.516h-148.267zM403.803 318.469v259.061h186.113q16.818 0 27.283-10.465t10.465-27.332v-53.936q0-17.314-10.465-27.555-10.465-10.242-27.332-10.242 16.867 0 27.332-10.242 10.465-10.241 10.465-27.555v-53.936q0-16.867-10.465-27.332t-27.283-10.465h-186.113zM458.064 473.6h115.339v49.669h-115.339v-49.669zM458.064 372.731h115.339v49.669h-115.339v-49.669zM123.664 318.469v221.303q0 16.828 10.465 27.293 10.464 10.465 27.332 10.465h148.267q16.758 0 27.15-10.465t10.391-27.277v-221.319h-54.005v82.133h-115.595v-82.133h-54.005zM177.669 454.864h115.595v68.405h-115.595v-68.405z" />
<glyph unicode="&#xe97d;" glyph-name="abc" d="M714.272 318.469q-16.758 0-27.15 10.465t-10.391 27.332v183.467q0 16.867 10.391 27.332t27.15 10.465h148.267q16.868 0 27.332-10.465 10.465-10.465 10.465-27.332v-50.597h-54.005v34.133h-115.595v-150.539h115.595v34.133h54.005v-50.526q0-16.836-10.465-27.353t-27.332-10.516h-148.267zM403.803 318.469v259.061h186.113q16.818 0 27.283-10.465t10.465-27.332v-53.936q0-17.314-10.465-27.555-10.465-10.242-27.332-10.242 16.867 0 27.332-10.242 10.465-10.241 10.465-27.555v-53.936q0-16.867-10.465-27.332t-27.283-10.465h-186.113zM458.064 473.6h115.339v49.669h-115.339v-49.669zM458.064 372.731h115.339v49.669h-115.339v-49.669zM123.664 318.469v221.303q0 16.828 10.465 27.293 10.464 10.465 27.332 10.465h148.267q16.758 0 27.15-10.465t10.391-27.277v-221.319h-54.005v82.133h-115.595v-82.133h-54.005zM177.669 454.864h115.595v68.405h-115.595v-68.405z" />
</font>
</defs>
</svg>
